(Accordeon, Easy Listening) VA - The World of Akkordeon (2CD) - 1997, FLAC (image+.cue), lossless - Скачать

Жанр: Accordeon, Easy Listening
Страна-производитель диска: Germany
Год издания: 1997
Издатель (лейбл): ZYX Music
Номер по каталогу: 11064-2
Аудиокодек: FLAC (*.flac)
Тип рипа: image+.cue
Битрейт аудио: lossless
Продолжительность: 01:37:52
Источник (релизер): Coбственный диск
Наличие сканов в содержимом раздачи: да

pop, высокое качество, музыка, торрент, soundtrack, cd, поп, трек, torrent, бесплатно, скачать, pop-music, альбом, поп-музыка, lossless, композиции, альбом, mp3, дискография, песни, download

CD 1
1-01 Frieda und Carmen Wilhelm - Vogelgezwitscher 2:03
1-02 Nando Monika - Carnevale di Venezia 2:58
1-03 Frieda und Carmen Wilhelm - Lustig und fidel 2:15
1-04 Georg Schwenk - Rosamunde 3:35
1-05 Harry Mooten - Deine Träume 1:49
1-06 Georg Schwenk - Hummelflug 1:31
1-07 Harry Mooten - Coup de Foudre 2:31
1-08 Georg Schwenk - Guantanamera 2:42
1-09 Drei Generationen Raymond - Maria Linda 2:28
1-10 Georg Schwenk - Funiculi-Funicula 2:23
1-11 Rene Ninforge - Glühwürmchen 3:26
1-12 Generationen Raymond - Wie ein Traum 2:55
1-13 Harry Mooten - Polka Arlesienne 1:34
1-14 Drei Generationen Raymond - Calamity Jane 2:56
1-15 Georg Schwenk - Türkischer Marsch 3:32
1-16 Peppino Principe - Bitte zum Walzer 2:38
1-17 Rene Ninforge - Carla 3:10
1-18 Nando Monika - Bonsoir, Paris 3:31
CD 2
2-01 Frieda und Carmen Wilhelm - Regenbogenpolka 2:28
2-02 Nando Monika - Viola Paris 3:13
2-03 Frieda und Carmen Wilhelm - Dolomitenblick 2:11
2-04 Georg Schwenk - Tanzende Finger 2:45
2-05 Frieda Und Carmen Wilhelm - Kirschblütenwalzer 3:37
2-06 Harry Mooten - Hallucinations 2:41
2-07 Frieda Und Carmen Wilhelm - Delicado 2:13
2-08 Harry Mooten - Ganz Allein In Paris 2:19
2-09 Drei Generationen Raymond - Laine 2:08
2-10 Georg Schwenk - Walzer Aus Böhmen 2:38
2-11 Christa Behnke - Biscaya 3:52
2-12 Rene Ninforge - Duo D'amour 3:00
2-13 Drei Generationen Raymond - Sport Lui 2:19
2-14 Georg Schwenk - Klarinetten Muckel 3:04
2-15 Nando Monika - Silberne Schlittschuhe 3:23
2-16 Christa Behnke - Zirkus Renz 2:43
2-17 Georg Schwenk - Der Polka-Franz 2:17
2-18 Hausi Straub - Jahrgang 28 3:05
1-01 Frieda und Carmen Wilhelm - Vogelgezwitscher 2:03
1-02 Nando Monika - Carnevale di Venezia 2:58
1-03 Frieda und Carmen Wilhelm - Lustig und fidel 2:15
1-04 Georg Schwenk - Rosamunde 3:35
1-05 Harry Mooten - Deine Träume 1:49
1-06 Georg Schwenk - Hummelflug 1:31
1-07 Harry Mooten - Coup de Foudre 2:31
1-08 Georg Schwenk - Guantanamera 2:42
1-09 Drei Generationen Raymond - Maria Linda 2:28
1-10 Georg Schwenk - Funiculi-Funicula 2:23
1-11 Rene Ninforge - Glühwürmchen 3:26
1-12 Generationen Raymond - Wie ein Traum 2:55
1-13 Harry Mooten - Polka Arlesienne 1:34
1-14 Drei Generationen Raymond - Calamity Jane 2:56
1-15 Georg Schwenk - Türkischer Marsch 3:32
1-16 Peppino Principe - Bitte zum Walzer 2:38
1-17 Rene Ninforge - Carla 3:10
1-18 Nando Monika - Bonsoir, Paris 3:31
2-01 Frieda und Carmen Wilhelm - Regenbogenpolka 2:28
2-02 Nando Monika - Viola Paris 3:13
2-03 Frieda und Carmen Wilhelm - Dolomitenblick 2:11
2-04 Georg Schwenk - Tanzende Finger 2:45
2-05 Frieda Und Carmen Wilhelm - Kirschblütenwalzer 3:37
2-06 Harry Mooten - Hallucinations 2:41
2-07 Frieda Und Carmen Wilhelm - Delicado 2:13
2-08 Harry Mooten - Ganz Allein In Paris 2:19
2-09 Drei Generationen Raymond - Laine 2:08
2-10 Georg Schwenk - Walzer Aus Böhmen 2:38
2-11 Christa Behnke - Biscaya 3:52
2-12 Rene Ninforge - Duo D'amour 3:00
2-13 Drei Generationen Raymond - Sport Lui 2:19
2-14 Georg Schwenk - Klarinetten Muckel 3:04
2-15 Nando Monika - Silberne Schlittschuhe 3:23
2-16 Christa Behnke - Zirkus Renz 2:43
2-17 Georg Schwenk - Der Polka-Franz 2:17
2-18 Hausi Straub - Jahrgang 28 3:05
CD 1
 Exact Audio Copy V1.0 beta 3 from 29. August 2011
Отчёт EAC об извлечении, выполненном 26. января 2014, 16:18
various artists / The World of Akkordeon CD1
Дисковод: TSSTcorpCDDVDW SN-208BB Adapter: 0 ID: 1
Режим чтения : Достоверность
Использование точного потока : Да
Отключение кэша аудио : Да
Использование указателей C2 : Нет
Коррекция смещения при чтении : 6
Способность читать области Lead-in и Lead-out : Нет
Заполнение пропущенных сэмплов тишиной : Да
Удаление блоков с тишиной в начале и конце : Нет
При вычислениях CRC использовались нулевые сэмплы : Да
Интерфейс : Встроенный Win32-интерфейс для Win NT/2000
Выходной формат : Пользовательский кодировщик
Выбранный битрейт : 896 kBit/s
Качество : Высокий
Добавление ID3-тега : Нет
Утилита сжатия : C:\Program Files (x86)\Exact Audio Copy\Flac\flac.exe
Дополнительные параметры : -V -8 -T "Date=%year%" -T "Genre=%genre%" %source%
TOC извлечённого CD
Трек | Старт | Длительность | Начальный сектор | Конечный сектор
---------------------------------------------------------------------
1 | 0:00.00 | 2:01.10 | 0 | 9084
2 | 2:01.10 | 2:57.28 | 9085 | 22387
3 | 4:58.38 | 2:15.22 | 22388 | 32534
4 | 7:13.60 | 3:35.35 | 32535 | 48694
5 | 10:49.20 | 1:48.33 | 48695 | 56827
6 | 12:37.53 | 1:31.20 | 56828 | 63672
7 | 14:08.73 | 2:30.62 | 63673 | 74984
8 | 16:39.60 | 2:42.15 | 74985 | 87149
9 | 19:22.00 | 2:28.25 | 87150 | 98274
10 | 21:50.25 | 2:22.68 | 98275 | 108992
11 | 24:13.18 | 3:25.47 | 108993 | 124414
12 | 27:38.65 | 2:54.65 | 124415 | 137529
13 | 30:33.55 | 1:33.35 | 137530 | 144539
14 | 32:07.15 | 2:56.48 | 144540 | 157787
15 | 35:03.63 | 3:32.37 | 157788 | 173724
16 | 38:36.25 | 2:38.48 | 173725 | 185622
17 | 41:14.73 | 3:09.37 | 185623 | 199834
18 | 44:24.35 | 3:31.23 | 199835 | 215682
Характеристики диапазона извлечения и сообщения об ошибках
Выбранный диапазон
Имя файла N:\Audio_Copy\VA - The World of Akkordeon - 2007\CD1\The World of Akkordeon CD1.wav
Пиковый уровень 90.0 %
Скорость извлечения 2.7 X
Качество диапазона 99.9 %
CRC копии 96A16C19
Копирование... OK
Ошибок не произошло
AccurateRip: сводка
Трек 1 : извлечено точно (доверие 1) [78905229] (AR v1)
Трек 2 : извлечено точно (доверие 1) [D7AB7685] (AR v1)
Трек 3 : извлечено точно (доверие 1) [23F0FD34] (AR v1)
Трек 4 : извлечено точно (доверие 1) [8D0BEB0A] (AR v1)
Трек 5 : извлечено точно (доверие 1) [1F6A032F] (AR v1)
Трек 6 : извлечено точно (доверие 1) [A03802F7] (AR v1)
Трек 7 : извлечено точно (доверие 1) [E0DF2DDA] (AR v1)
Трек 8 : извлечено точно (доверие 1) [B9336BEA] (AR v1)
Трек 9 : извлечено точно (доверие 1) [33E780F6] (AR v1)
Трек 10 : извлечено точно (доверие 1) [D4486562] (AR v1)
Трек 11 : извлечено точно (доверие 1) [9D91BD8F] (AR v1)
Трек 12 : извлечено точно (доверие 1) [C8D02C54] (AR v1)
Трек 13 : извлечено точно (доверие 1) [E1571696] (AR v1)
Трек 14 : извлечено точно (доверие 1) [4917AC77] (AR v1)
Трек 15 точность не определена (достоверность 1) [C3EF9C11], AccurateRip вернул [0704F81A] (AR v2)
Трек 16 : извлечено точно (доверие 1) [4AA33D51] (AR v1)
Трек 17 : извлечено точно (доверие 1) [B8B0310A] (AR v1)
Трек 18 : извлечено точно (доверие 1) [C84FE102] (AR v1)
17 трек(и) скопированы точно
1 трек(и) не удалось проверить на точность
Некоторые треки не прошли проверку на точность
Конец отчёта
==== Контрольная сумма отчёта 17FB2C8FAECEB8573A7F24DCCBA806E3FE9C97BD40646B22935D8A0CFA881270 ====
CD 2
 Exact Audio Copy V1.0 beta 3 from 29. August 2011
Отчёт EAC об извлечении, выполненном 26. января 2014, 13:23
Various Artists / The World Of Akkordeon CD2
Дисковод: TSSTcorpCDDVDW SN-208BB Adapter: 0 ID: 1
Режим чтения : Достоверность
Использование точного потока : Да
Отключение кэша аудио : Да
Использование указателей C2 : Нет
Коррекция смещения при чтении : 6
Способность читать области Lead-in и Lead-out : Нет
Заполнение пропущенных сэмплов тишиной : Да
Удаление блоков с тишиной в начале и конце : Нет
При вычислениях CRC использовались нулевые сэмплы : Да
Интерфейс : Встроенный Win32-интерфейс для Win NT/2000
Выходной формат : Пользовательский кодировщик
Выбранный битрейт : 896 kBit/s
Качество : Высокий
Добавление ID3-тега : Нет
Утилита сжатия : C:\Program Files (x86)\Exact Audio Copy\Flac\flac.exe
Дополнительные параметры : -V -8 -T "Date=%year%" -T "Genre=%genre%" %source%
TOC извлечённого CD
Трек | Старт | Длительность | Начальный сектор | Конечный сектор
---------------------------------------------------------------------
1 | 0:00.00 | 2:25.30 | 0 | 10904
2 | 2:25.30 | 3:12.28 | 10905 | 25332
3 | 5:37.58 | 2:11.10 | 25333 | 35167
4 | 7:48.68 | 2:44.55 | 35168 | 47522
5 | 10:33.48 | 3:37.10 | 47523 | 63807
6 | 14:10.58 | 2:41.25 | 63808 | 75907
7 | 16:52.08 | 2:13.07 | 75908 | 85889
8 | 19:05.15 | 2:18.33 | 85890 | 96272
9 | 21:23.48 | 2:07.42 | 96273 | 105839
10 | 23:31.15 | 2:37.40 | 105840 | 117654
11 | 26:08.55 | 3:51.60 | 117655 | 135039
12 | 30:00.40 | 3:00.18 | 135040 | 148557
13 | 33:00.58 | 2:18.45 | 148558 | 158952
14 | 35:19.28 | 3:04.32 | 158953 | 172784
15 | 38:23.60 | 3:23.43 | 172785 | 188052
16 | 41:47.28 | 2:42.70 | 188053 | 200272
17 | 44:30.23 | 2:17.17 | 200273 | 210564
18 | 46:47.40 | 3:04.53 | 210565 | 224417
Характеристики диапазона извлечения и сообщения об ошибках
Выбранный диапазон
Имя файла N:\Audio_Copy\VA - The World of Akkordeon - 2007\CD2\The World Of Akkordeon CD2.wav
Пиковый уровень 100.0 %
Скорость извлечения 2.8 X
Качество диапазона 100.0 %
CRC копии 66C708B7
Копирование... OK
Ошибок не произошло
AccurateRip: сводка
Трек 1 : извлечено точно (доверие 1) [A6C75501] (AR v1)
Трек 2 : извлечено точно (доверие 1) [1565FDDD] (AR v1)
Трек 3 : извлечено точно (доверие 1) [7F995302] (AR v1)
Трек 4 : извлечено точно (доверие 1) [3364F594] (AR v1)
Трек 5 : извлечено точно (доверие 1) [A4CF3DCB] (AR v1)
Трек 6 : извлечено точно (доверие 1) [433FCCE7] (AR v1)
Трек 7 : извлечено точно (доверие 1) [6D3ECDE8] (AR v1)
Трек 8 : извлечено точно (доверие 1) [7837C0DC] (AR v1)
Трек 9 : извлечено точно (доверие 1) [ECF46CE6] (AR v1)
Трек 10 : извлечено точно (доверие 1) [5C240DC6] (AR v1)
Трек 11 : извлечено точно (доверие 1) [70B7CD84] (AR v1)
Трек 12 : извлечено точно (доверие 1) [39D713B6] (AR v1)
Трек 13 : извлечено точно (доверие 1) [8488BC26] (AR v1)
Трек 14 : извлечено точно (доверие 1) [58A8D9BA] (AR v1)
Трек 15 : извлечено точно (доверие 1) [48F45565] (AR v1)
Трек 16 : извлечено точно (доверие 1) [D8C6640C] (AR v1)
Трек 17 : извлечено точно (доверие 1) [34326DDC] (AR v1)
Трек 18 : извлечено точно (доверие 1) [11E2E215] (AR v1)
Все треки извлечены точно
Конец отчёта
==== Контрольная сумма отчёта C4B0CFAABD42C2B34C24B442318AD09434EEABBEB18779C1B0E0A8DD6C69C47E ====
 Exact Audio Copy V1.0 beta 3 from 29. August 2011
Отчёт EAC об извлечении, выполненном 26. января 2014, 16:18
various artists / The World of Akkordeon CD1
Дисковод: TSSTcorpCDDVDW SN-208BB Adapter: 0 ID: 1
Режим чтения : Достоверность
Использование точного потока : Да
Отключение кэша аудио : Да
Использование указателей C2 : Нет
Коррекция смещения при чтении : 6
Способность читать области Lead-in и Lead-out : Нет
Заполнение пропущенных сэмплов тишиной : Да
Удаление блоков с тишиной в начале и конце : Нет
При вычислениях CRC использовались нулевые сэмплы : Да
Интерфейс : Встроенный Win32-интерфейс для Win NT/2000
Выходной формат : Пользовательский кодировщик
Выбранный битрейт : 896 kBit/s
Качество : Высокий
Добавление ID3-тега : Нет
Утилита сжатия : C:\Program Files (x86)\Exact Audio Copy\Flac\flac.exe
Дополнительные параметры : -V -8 -T "Date=%year%" -T "Genre=%genre%" %source%
TOC извлечённого CD
Трек | Старт | Длительность | Начальный сектор | Конечный сектор
---------------------------------------------------------------------
1 | 0:00.00 | 2:01.10 | 0 | 9084
2 | 2:01.10 | 2:57.28 | 9085 | 22387
3 | 4:58.38 | 2:15.22 | 22388 | 32534
4 | 7:13.60 | 3:35.35 | 32535 | 48694
5 | 10:49.20 | 1:48.33 | 48695 | 56827
6 | 12:37.53 | 1:31.20 | 56828 | 63672
7 | 14:08.73 | 2:30.62 | 63673 | 74984
8 | 16:39.60 | 2:42.15 | 74985 | 87149
9 | 19:22.00 | 2:28.25 | 87150 | 98274
10 | 21:50.25 | 2:22.68 | 98275 | 108992
11 | 24:13.18 | 3:25.47 | 108993 | 124414
12 | 27:38.65 | 2:54.65 | 124415 | 137529
13 | 30:33.55 | 1:33.35 | 137530 | 144539
14 | 32:07.15 | 2:56.48 | 144540 | 157787
15 | 35:03.63 | 3:32.37 | 157788 | 173724
16 | 38:36.25 | 2:38.48 | 173725 | 185622
17 | 41:14.73 | 3:09.37 | 185623 | 199834
18 | 44:24.35 | 3:31.23 | 199835 | 215682
Характеристики диапазона извлечения и сообщения об ошибках
Выбранный диапазон
Имя файла N:\Audio_Copy\VA - The World of Akkordeon - 2007\CD1\The World of Akkordeon CD1.wav
Пиковый уровень 90.0 %
Скорость извлечения 2.7 X
Качество диапазона 99.9 %
CRC копии 96A16C19
Копирование... OK
Ошибок не произошло
AccurateRip: сводка
Трек 1 : извлечено точно (доверие 1) [78905229] (AR v1)
Трек 2 : извлечено точно (доверие 1) [D7AB7685] (AR v1)
Трек 3 : извлечено точно (доверие 1) [23F0FD34] (AR v1)
Трек 4 : извлечено точно (доверие 1) [8D0BEB0A] (AR v1)
Трек 5 : извлечено точно (доверие 1) [1F6A032F] (AR v1)
Трек 6 : извлечено точно (доверие 1) [A03802F7] (AR v1)
Трек 7 : извлечено точно (доверие 1) [E0DF2DDA] (AR v1)
Трек 8 : извлечено точно (доверие 1) [B9336BEA] (AR v1)
Трек 9 : извлечено точно (доверие 1) [33E780F6] (AR v1)
Трек 10 : извлечено точно (доверие 1) [D4486562] (AR v1)
Трек 11 : извлечено точно (доверие 1) [9D91BD8F] (AR v1)
Трек 12 : извлечено точно (доверие 1) [C8D02C54] (AR v1)
Трек 13 : извлечено точно (доверие 1) [E1571696] (AR v1)
Трек 14 : извлечено точно (доверие 1) [4917AC77] (AR v1)
Трек 15 точность не определена (достоверность 1) [C3EF9C11], AccurateRip вернул [0704F81A] (AR v2)
Трек 16 : извлечено точно (доверие 1) [4AA33D51] (AR v1)
Трек 17 : извлечено точно (доверие 1) [B8B0310A] (AR v1)
Трек 18 : извлечено точно (доверие 1) [C84FE102] (AR v1)
17 трек(и) скопированы точно
1 трек(и) не удалось проверить на точность
Некоторые треки не прошли проверку на точность
Конец отчёта
==== Контрольная сумма отчёта 17FB2C8FAECEB8573A7F24DCCBA806E3FE9C97BD40646B22935D8A0CFA881270 ====
 Exact Audio Copy V1.0 beta 3 from 29. August 2011
Отчёт EAC об извлечении, выполненном 26. января 2014, 13:23
Various Artists / The World Of Akkordeon CD2
Дисковод: TSSTcorpCDDVDW SN-208BB Adapter: 0 ID: 1
Режим чтения : Достоверность
Использование точного потока : Да
Отключение кэша аудио : Да
Использование указателей C2 : Нет
Коррекция смещения при чтении : 6
Способность читать области Lead-in и Lead-out : Нет
Заполнение пропущенных сэмплов тишиной : Да
Удаление блоков с тишиной в начале и конце : Нет
При вычислениях CRC использовались нулевые сэмплы : Да
Интерфейс : Встроенный Win32-интерфейс для Win NT/2000
Выходной формат : Пользовательский кодировщик
Выбранный битрейт : 896 kBit/s
Качество : Высокий
Добавление ID3-тега : Нет
Утилита сжатия : C:\Program Files (x86)\Exact Audio Copy\Flac\flac.exe
Дополнительные параметры : -V -8 -T "Date=%year%" -T "Genre=%genre%" %source%
TOC извлечённого CD
Трек | Старт | Длительность | Начальный сектор | Конечный сектор
---------------------------------------------------------------------
1 | 0:00.00 | 2:25.30 | 0 | 10904
2 | 2:25.30 | 3:12.28 | 10905 | 25332
3 | 5:37.58 | 2:11.10 | 25333 | 35167
4 | 7:48.68 | 2:44.55 | 35168 | 47522
5 | 10:33.48 | 3:37.10 | 47523 | 63807
6 | 14:10.58 | 2:41.25 | 63808 | 75907
7 | 16:52.08 | 2:13.07 | 75908 | 85889
8 | 19:05.15 | 2:18.33 | 85890 | 96272
9 | 21:23.48 | 2:07.42 | 96273 | 105839
10 | 23:31.15 | 2:37.40 | 105840 | 117654
11 | 26:08.55 | 3:51.60 | 117655 | 135039
12 | 30:00.40 | 3:00.18 | 135040 | 148557
13 | 33:00.58 | 2:18.45 | 148558 | 158952
14 | 35:19.28 | 3:04.32 | 158953 | 172784
15 | 38:23.60 | 3:23.43 | 172785 | 188052
16 | 41:47.28 | 2:42.70 | 188053 | 200272
17 | 44:30.23 | 2:17.17 | 200273 | 210564
18 | 46:47.40 | 3:04.53 | 210565 | 224417
Характеристики диапазона извлечения и сообщения об ошибках
Выбранный диапазон
Имя файла N:\Audio_Copy\VA - The World of Akkordeon - 2007\CD2\The World Of Akkordeon CD2.wav
Пиковый уровень 100.0 %
Скорость извлечения 2.8 X
Качество диапазона 100.0 %
CRC копии 66C708B7
Копирование... OK
Ошибок не произошло
AccurateRip: сводка
Трек 1 : извлечено точно (доверие 1) [A6C75501] (AR v1)
Трек 2 : извлечено точно (доверие 1) [1565FDDD] (AR v1)
Трек 3 : извлечено точно (доверие 1) [7F995302] (AR v1)
Трек 4 : извлечено точно (доверие 1) [3364F594] (AR v1)
Трек 5 : извлечено точно (доверие 1) [A4CF3DCB] (AR v1)
Трек 6 : извлечено точно (доверие 1) [433FCCE7] (AR v1)
Трек 7 : извлечено точно (доверие 1) [6D3ECDE8] (AR v1)
Трек 8 : извлечено точно (доверие 1) [7837C0DC] (AR v1)
Трек 9 : извлечено точно (доверие 1) [ECF46CE6] (AR v1)
Трек 10 : извлечено точно (доверие 1) [5C240DC6] (AR v1)
Трек 11 : извлечено точно (доверие 1) [70B7CD84] (AR v1)
Трек 12 : извлечено точно (доверие 1) [39D713B6] (AR v1)
Трек 13 : извлечено точно (доверие 1) [8488BC26] (AR v1)
Трек 14 : извлечено точно (доверие 1) [58A8D9BA] (AR v1)
Трек 15 : извлечено точно (доверие 1) [48F45565] (AR v1)
Трек 16 : извлечено точно (доверие 1) [D8C6640C] (AR v1)
Трек 17 : извлечено точно (доверие 1) [34326DDC] (AR v1)
Трек 18 : извлечено точно (доверие 1) [11E2E215] (AR v1)
Все треки извлечены точно
Конец отчёта
==== Контрольная сумма отчёта C4B0CFAABD42C2B34C24B442318AD09434EEABBEB18779C1B0E0A8DD6C69C47E ====
CD 1
 REM GENRE Instrumental
REM DATE 1997
REM DISCID D90B3B12
REM COMMENT "ExactAudioCopy v1.0b3"
PERFORMER "various artists"
TITLE "The World of Akkordeon CD1"
FILE "The World of Akkordeon CD1.flac" WAVE
TRACK 01 AUDIO
TITLE "Vogelgezwitscher"
PERFORMER "Frieda und Carmen Wilhelm"
INDEX 01 00:00:00
TRACK 02 AUDIO
TITLE "Carnevale di Venezia"
PERFORMER "Nando Monika"
INDEX 01 02:01:10
TRACK 03 AUDIO
TITLE "Lustig und fidel"
PERFORMER "Frieda und Carmen Wilhelm"
INDEX 01 04:58:38
TRACK 04 AUDIO
TITLE "Rosamunde"
PERFORMER "Georg Schwenk"
INDEX 01 07:13:60
TRACK 05 AUDIO
TITLE "Deine Träume"
PERFORMER "Harry Mooten"
INDEX 01 10:49:20
TRACK 06 AUDIO
TITLE "Hummelflug"
PERFORMER "Georg Schwenk"
INDEX 01 12:37:53
TRACK 07 AUDIO
TITLE "Coup de Foudre"
PERFORMER "Harry Mooten"
INDEX 01 14:08:73
TRACK 08 AUDIO
TITLE "Guantanamera"
PERFORMER "Georg Schwenk"
INDEX 01 16:39:60
TRACK 09 AUDIO
TITLE "Maria Linda"
PERFORMER "Drei Generationen Raymond"
INDEX 01 19:22:00
TRACK 10 AUDIO
TITLE "Funiculi-Funicula"
PERFORMER "Georg Schwenk"
INDEX 01 21:50:25
TRACK 11 AUDIO
TITLE "Glühwürmchen"
PERFORMER "Rene Ninforge"
INDEX 01 24:13:18
TRACK 12 AUDIO
TITLE "Wie ein Traum"
PERFORMER "Drei Generationen Raymond"
INDEX 01 27:38:65
TRACK 13 AUDIO
TITLE "Polka Arlesienne"
PERFORMER "Harry Mooten"
INDEX 01 30:33:55
TRACK 14 AUDIO
TITLE "Calamity Jane"
PERFORMER "Drei Generationen Raymond"
INDEX 01 32:07:15
TRACK 15 AUDIO
TITLE "Türkischer Marsch"
PERFORMER "Georg Schwenk"
INDEX 01 35:03:63
TRACK 16 AUDIO
TITLE "Bitte zum Walzer"
PERFORMER "Peppino Principe"
INDEX 01 38:36:25
TRACK 17 AUDIO
TITLE "Carla"
PERFORMER "Rene Ninforge"
INDEX 01 41:14:73
TRACK 18 AUDIO
TITLE "Bonsoir, Paris"
PERFORMER "Nando Monika"
INDEX 01 44:24:35
CD 2
 REM GENRE Instrumental
REM DATE 1997
REM DISCID E10BB012
REM COMMENT "ExactAudioCopy v1.0b3"
PERFORMER "Various Artists"
TITLE "The World of Akkordeon CD2"
FILE "The World Of Akkordeon CD2.flac" WAVE
TRACK 01 AUDIO
TITLE "Regenbogenpolka"
PERFORMER "Frieda Und Carmen Wilhelm"
INDEX 01 00:00:00
TRACK 02 AUDIO
TITLE "Viola Paris"
PERFORMER "Nando Monika"
INDEX 01 02:25:30
TRACK 03 AUDIO
TITLE "Dolomitenblick"
PERFORMER "Frieda Und Carmen Wilhelm"
INDEX 01 05:37:58
TRACK 04 AUDIO
TITLE "Tanzende Finger"
PERFORMER "Georg Schwenk"
INDEX 01 07:48:68
TRACK 05 AUDIO
TITLE "Kirschblütenwalzer"
PERFORMER "Frieda Und Carmen Wilhelm"
INDEX 01 10:33:48
TRACK 06 AUDIO
TITLE "Hallucinations"
PERFORMER "Harry Mooten"
INDEX 01 14:10:58
TRACK 07 AUDIO
TITLE "Delicado"
PERFORMER "Frieda Und Carmen Wilhelm"
INDEX 01 16:52:08
TRACK 08 AUDIO
TITLE "Ganz Allein In Paris"
PERFORMER "Harry Mooten"
INDEX 01 19:05:15
TRACK 09 AUDIO
TITLE "Laine"
PERFORMER "Drei Generationen Raymond"
INDEX 01 21:23:48
TRACK 10 AUDIO
TITLE "Walzer Aus Böhmen"
PERFORMER "Georg Schwenk"
INDEX 01 23:31:15
TRACK 11 AUDIO
TITLE "Biscaya"
PERFORMER "Christa Behnke"
INDEX 01 26:08:55
TRACK 12 AUDIO
TITLE "Duo D'amour"
PERFORMER "Rene Ninforge"
INDEX 01 30:00:40
TRACK 13 AUDIO
TITLE "Sport Lui"
PERFORMER "Drei Generationen Raymond"
INDEX 01 33:00:58
TRACK 14 AUDIO
TITLE "Klarinetten Muckel"
PERFORMER "Georg Schwenk"
INDEX 01 35:19:28
TRACK 15 AUDIO
TITLE "Silberne Schlittschuhe"
PERFORMER "Nando Monika"
INDEX 01 38:23:60
TRACK 16 AUDIO
TITLE "Zirkus Renz"
PERFORMER "Christa Behnke"
INDEX 01 41:47:28
TRACK 17 AUDIO
TITLE "Der Polka-Franz"
PERFORMER "Georg Schwenk"
INDEX 01 44:30:23
TRACK 18 AUDIO
TITLE "Jahrgang 28"
PERFORMER "Hausi Straub"
INDEX 01 46:47:40
 REM GENRE Instrumental
REM DATE 1997
REM DISCID D90B3B12
REM COMMENT "ExactAudioCopy v1.0b3"
PERFORMER "various artists"
TITLE "The World of Akkordeon CD1"
FILE "The World of Akkordeon CD1.flac" WAVE
TRACK 01 AUDIO
TITLE "Vogelgezwitscher"
PERFORMER "Frieda und Carmen Wilhelm"
INDEX 01 00:00:00
TRACK 02 AUDIO
TITLE "Carnevale di Venezia"
PERFORMER "Nando Monika"
INDEX 01 02:01:10
TRACK 03 AUDIO
TITLE "Lustig und fidel"
PERFORMER "Frieda und Carmen Wilhelm"
INDEX 01 04:58:38
TRACK 04 AUDIO
TITLE "Rosamunde"
PERFORMER "Georg Schwenk"
INDEX 01 07:13:60
TRACK 05 AUDIO
TITLE "Deine Träume"
PERFORMER "Harry Mooten"
INDEX 01 10:49:20
TRACK 06 AUDIO
TITLE "Hummelflug"
PERFORMER "Georg Schwenk"
INDEX 01 12:37:53
TRACK 07 AUDIO
TITLE "Coup de Foudre"
PERFORMER "Harry Mooten"
INDEX 01 14:08:73
TRACK 08 AUDIO
TITLE "Guantanamera"
PERFORMER "Georg Schwenk"
INDEX 01 16:39:60
TRACK 09 AUDIO
TITLE "Maria Linda"
PERFORMER "Drei Generationen Raymond"
INDEX 01 19:22:00
TRACK 10 AUDIO
TITLE "Funiculi-Funicula"
PERFORMER "Georg Schwenk"
INDEX 01 21:50:25
TRACK 11 AUDIO
TITLE "Glühwürmchen"
PERFORMER "Rene Ninforge"
INDEX 01 24:13:18
TRACK 12 AUDIO
TITLE "Wie ein Traum"
PERFORMER "Drei Generationen Raymond"
INDEX 01 27:38:65
TRACK 13 AUDIO
TITLE "Polka Arlesienne"
PERFORMER "Harry Mooten"
INDEX 01 30:33:55
TRACK 14 AUDIO
TITLE "Calamity Jane"
PERFORMER "Drei Generationen Raymond"
INDEX 01 32:07:15
TRACK 15 AUDIO
TITLE "Türkischer Marsch"
PERFORMER "Georg Schwenk"
INDEX 01 35:03:63
TRACK 16 AUDIO
TITLE "Bitte zum Walzer"
PERFORMER "Peppino Principe"
INDEX 01 38:36:25
TRACK 17 AUDIO
TITLE "Carla"
PERFORMER "Rene Ninforge"
INDEX 01 41:14:73
TRACK 18 AUDIO
TITLE "Bonsoir, Paris"
PERFORMER "Nando Monika"
INDEX 01 44:24:35
 REM GENRE Instrumental
REM DATE 1997
REM DISCID E10BB012
REM COMMENT "ExactAudioCopy v1.0b3"
PERFORMER "Various Artists"
TITLE "The World of Akkordeon CD2"
FILE "The World Of Akkordeon CD2.flac" WAVE
TRACK 01 AUDIO
TITLE "Regenbogenpolka"
PERFORMER "Frieda Und Carmen Wilhelm"
INDEX 01 00:00:00
TRACK 02 AUDIO
TITLE "Viola Paris"
PERFORMER "Nando Monika"
INDEX 01 02:25:30
TRACK 03 AUDIO
TITLE "Dolomitenblick"
PERFORMER "Frieda Und Carmen Wilhelm"
INDEX 01 05:37:58
TRACK 04 AUDIO
TITLE "Tanzende Finger"
PERFORMER "Georg Schwenk"
INDEX 01 07:48:68
TRACK 05 AUDIO
TITLE "Kirschblütenwalzer"
PERFORMER "Frieda Und Carmen Wilhelm"
INDEX 01 10:33:48
TRACK 06 AUDIO
TITLE "Hallucinations"
PERFORMER "Harry Mooten"
INDEX 01 14:10:58
TRACK 07 AUDIO
TITLE "Delicado"
PERFORMER "Frieda Und Carmen Wilhelm"
INDEX 01 16:52:08
TRACK 08 AUDIO
TITLE "Ganz Allein In Paris"
PERFORMER "Harry Mooten"
INDEX 01 19:05:15
TRACK 09 AUDIO
TITLE "Laine"
PERFORMER "Drei Generationen Raymond"
INDEX 01 21:23:48
TRACK 10 AUDIO
TITLE "Walzer Aus Böhmen"
PERFORMER "Georg Schwenk"
INDEX 01 23:31:15
TRACK 11 AUDIO
TITLE "Biscaya"
PERFORMER "Christa Behnke"
INDEX 01 26:08:55
TRACK 12 AUDIO
TITLE "Duo D'amour"
PERFORMER "Rene Ninforge"
INDEX 01 30:00:40
TRACK 13 AUDIO
TITLE "Sport Lui"
PERFORMER "Drei Generationen Raymond"
INDEX 01 33:00:58
TRACK 14 AUDIO
TITLE "Klarinetten Muckel"
PERFORMER "Georg Schwenk"
INDEX 01 35:19:28
TRACK 15 AUDIO
TITLE "Silberne Schlittschuhe"
PERFORMER "Nando Monika"
INDEX 01 38:23:60
TRACK 16 AUDIO
TITLE "Zirkus Renz"
PERFORMER "Christa Behnke"
INDEX 01 41:47:28
TRACK 17 AUDIO
TITLE "Der Polka-Franz"
PERFORMER "Georg Schwenk"
INDEX 01 44:30:23
TRACK 18 AUDIO
TITLE "Jahrgang 28"
PERFORMER "Hausi Straub"
INDEX 01 46:47:40