Alaska & Dinarama - Rock Latino Clandestino Videos & Live / Spain / 1983-2001 - Скачать


Alaska & Dinarama
================================================
Rock Latino Clandestino
Videos & Live
EMI Music Mexico
2009


Продолжительность: 40mn
Формат: DVD Video
Видео: MPEG Video / NTSC / 720x480 pixels / 4:3 / 29.970 fps
Аудио: AC-3 Audio / 2 channels / 48.0 KHz / 128 kbps




композиции, альбом, soundtrack, pop-music, поп, mp3, download, трек, torrent, музыка, скачать, дискография, торрент, pop, cd, песни, поп-музыка, бесплатно, высокое качество, lossless, альбом


01. El Fin Del Mundo
02. Mi Novio Es Un Zombi
03. Descongelate
04. Deseo Carnal
05. Como Pudiste Hacerme Esto A Mi
06. Ni Tu Ni Nadie 2
07. Abracadabra (La Bola De Cristal)
08. Bailando
09. Rey Del Glam
10. La Funcionaria Asesina

=====================================================================================
from wikipedia.org
=====================================================================================


Alaska y Dinarama was a Spanish electro-pop band formed by Olvido Gara, Ignacio "Nacho" Canut Guillen and Carlos Garcia Berlanga de Manrique in 1982. The group was popular and influential during La Movida Madrileña. Some of their famous recordings include Abracadabra, Ni Tú Ni Nadie,(which was entered for the Spanish heats of the Eurovision Song Contest in 1985 and later covered by the Mexican group Mœnia in 2004 and by the Puerto Rican band Circo in 2005) and ¿A quién le importa? (later covered by Mexican musician Thalía in 2002). In 1992 the name Alaska y Dinarama was no more and was renamed to what is now known as Fangoria.

General
Complete name : /Volumes/1TB/Drop/+Music/Alaska & Dinarama/Rock Latino Clandestino/VIDEO_TS/VIDEO_TS.BUP
Format : DVD Video
Format profile : Menu
File size : 22.0 KiB
Overall bit rate mode : Variable
Video
ID : 224 (0xE0)
Format : MPEG Video
Format version : Version 2
Bit rate mode : Variable
Width : 720 pixels
Height : 480 pixels
Display aspect ratio : 4:3
Frame rate : 29.970 fps
Standard : NTSC
Compression mode : Lossy
Text
Format : RLE
Format/Info : Run-length encoding
Bit depth : 2 bits
General
Complete name : /Volumes/1TB/Drop/+Music/Alaska & Dinarama/Rock Latino Clandestino/VIDEO_TS/VIDEO_TS.IFO
Format : DVD Video
Format profile : Menu
File size : 22.0 KiB
Overall bit rate mode : Variable
Video
ID : 224 (0xE0)
Format : MPEG Video
Format version : Version 2
Bit rate mode : Variable
Width : 720 pixels
Height : 480 pixels
Display aspect ratio : 4:3
Frame rate : 29.970 fps
Standard : NTSC
Compression mode : Lossy
Text
Format : RLE
Format/Info : Run-length encoding
Bit depth : 2 bits
General
Complete name : /Volumes/1TB/Drop/+Music/Alaska & Dinarama/Rock Latino Clandestino/VIDEO_TS/VIDEO_TS.VOB
Format : MPEG-PS
File size : 114 KiB
Duration : 400ms
Overall bit rate : 2 335 Kbps
Video
ID : 224 (0xE0)
Format : MPEG Video
Format version : Version 2
Format profile : [email protected]
Format settings, BVOP : Yes
Format settings, Matrix : Custom
Duration : 400ms
Maximum bit rate : 2 000 Kbps
Width : 720 pixels
Height : 480 pixels
Display aspect ratio : 4:3
Frame rate : 29.970 fps
Standard : NTSC
Color space : YUV
Chroma subsampling : 4:2:0
Bit depth : 8 bits
Scan type : Interlaced
Scan order : Top Field First
Compression mode : Lossy
Text
ID : 189 (0xBD)-32 (0x20)
Format : RLE
Format/Info : Run-length encoding
Muxing mode : DVD-Video
Menu
General
Complete name : /Volumes/1TB/Drop/+Music/Alaska & Dinarama/Rock Latino Clandestino/VIDEO_TS/VTS_01_0.BUP
Format : DVD Video
Format profile : Program
File size : 24.0 KiB
Duration : 3mn 54s
Overall bit rate mode : Variable
Overall bit rate : 836 bps
Video
ID : 224 (0xE0)
Format : MPEG Video
Format version : Version 2
Duration : 3mn 54s
Bit rate mode : Variable
Width : 720 pixels
Height : 480 pixels
Display aspect ratio : 4:3
Frame rate : 29.970 fps
Standard : NTSC
Compression mode : Lossy
Audio
ID : 128 (0x80)
Format : AC-3
Format/Info : Audio Coding 3
Duration : 3mn 54s
Channel(s) : 2 channels
Sampling rate : 48.0 KHz
Compression mode : Lossy
Menu
Duration : 3mn 54s
00:00:00.000 : Chapter 1
List (Audio) : 0
General
Complete name : /Volumes/1TB/Drop/+Music/Alaska & Dinarama/Rock Latino Clandestino/VIDEO_TS/VTS_01_0.IFO
Format : DVD Video
Format profile : Program
File size : 24.0 KiB
Duration : 3mn 54s
Overall bit rate mode : Variable
Overall bit rate : 836 bps
Video
ID : 224 (0xE0)
Format : MPEG Video
Format version : Version 2
Duration : 3mn 54s
Bit rate mode : Variable
Width : 720 pixels
Height : 480 pixels
Display aspect ratio : 4:3
Frame rate : 29.970 fps
Standard : NTSC
Compression mode : Lossy
Audio
ID : 128 (0x80)
Format : AC-3
Format/Info : Audio Coding 3
Duration : 3mn 54s
Channel(s) : 2 channels
Sampling rate : 48.0 KHz
Compression mode : Lossy
Menu
Duration : 3mn 54s
00:00:00.000 : Chapter 1
List (Audio) : 0
General
Complete name : /Volumes/1TB/Drop/+Music/Alaska & Dinarama/Rock Latino Clandestino/VIDEO_TS/VTS_01_0.VOB
Format : MPEG-PS
File size : 64.3 MiB
Duration : 2s 2ms
Overall bit rate mode : Variable
Overall bit rate : 270 Mbps
Video
ID : 224 (0xE0)
Format : MPEG Video
Format version : Version 2
Format profile : [email protected]
Format settings, BVOP : Yes
Format settings, Matrix : Custom
Format settings, GOP : M=3, N=15
Duration : 2s 2ms
Bit rate mode : Variable
Bit rate : 263 Mbps
Maximum bit rate : 8 000 Kbps
Width : 720 pixels
Height : 480 pixels
Display aspect ratio : 4:3
Frame rate : 29.970 fps
Standard : NTSC
Color space : YUV
Chroma subsampling : 4:2:0
Bit depth : 8 bits
Scan type : Interlaced
Scan order : Top Field First
Compression mode : Lossy
Bits/(Pixel*Frame) : 25.353
Stream size : 62.7 MiB (97%)
Audio
ID : 189 (0xBD)-160 (0xA0)
Format : PCM
Format settings, Endianness : Big
Format settings, Sign : Signed
Muxing mode : DVD-Video
Duration : 2s 2ms
Bit rate mode : Constant
Bit rate : 1 536 Kbps
Channel(s) : 2 channels
Channel positions : Front: L R
Sampling rate : 48.0 KHz
Bit depth : 16 bits
Stream size : 375 KiB (1%)
Text
ID : 189 (0xBD)-32 (0x20)
Format : RLE
Format/Info : Run-length encoding
Muxing mode : DVD-Video
Menu
General
Complete name : /Volumes/1TB/Drop/+Music/Alaska & Dinarama/Rock Latino Clandestino/VIDEO_TS/VTS_01_1.VOB
Format : MPEG-PS
File size : 177 MiB
Duration : 3mn 55s
Overall bit rate : 6 313 Kbps
Video
ID : 224 (0xE0)
Format : MPEG Video
Format version : Version 2
Format profile : [email protected]
Format settings, BVOP : Yes
Format settings, Matrix : Default
Format settings, GOP : M=3, N=15
Duration : 3mn 55s
Bit rate : 5 995 Kbps
Maximum bit rate : 6 000 Kbps
Width : 720 pixels
Height : 480 pixels
Display aspect ratio : 4:3
Frame rate : 29.970 fps
Standard : NTSC
Color space : YUV
Chroma subsampling : 4:2:0
Bit depth : 8 bits
Scan type : Progressive
Compression mode : Lossy
Bits/(Pixel*Frame) : 0.579
Stream size : 168 MiB (95%)
Audio
ID : 189 (0xBD)-128 (0x80)
Format : AC-3
Format/Info : Audio Coding 3
Mode extension : CM (complete main)
Muxing mode : DVD-Video
Duration : 3mn 55s
Bit rate mode : Constant
Bit rate : 192 Kbps
Channel(s) : 2 channels
Channel positions : Front: L R
Sampling rate : 48.0 KHz
Bit depth : 16 bits
Compression mode : Lossy
Stream size : 5.38 MiB (3%)
Menu
General
Complete name : /Volumes/1TB/Drop/+Music/Alaska & Dinarama/Rock Latino Clandestino/VIDEO_TS/VTS_02_0.BUP
Format : DVD Video
Format profile : Program
File size : 40.0 KiB
Duration : 40mn 35s
Overall bit rate mode : Variable
Overall bit rate : 134 bps
Video
ID : 224 (0xE0)
Format : MPEG Video
Format version : Version 2
Duration : 40mn 35s
Bit rate mode : Variable
Width : 720 pixels
Height : 480 pixels
Display aspect ratio : 4:3
Frame rate : 29.970 fps
Standard : NTSC
Compression mode : Lossy
Audio
ID : 128 (0x80)
Format : AC-3
Format/Info : Audio Coding 3
Duration : 40mn 35s
Channel(s) : 2 channels
Sampling rate : 48.0 KHz
Compression mode : Lossy
Menu
Duration : 40mn 35s
00:00:00.000 : Chapter 1
00:03:54.300 : Chapter 2
00:08:13.800 : Chapter 3
00:13:41.500 : Chapter 4
00:17:29.500 : Chapter 5
00:21:35.833 : Chapter 6
00:25:02.333 : Chapter 7
00:28:40.333 : Chapter 8
00:32:30.799 : Chapter 9
00:36:57.932 : Chapter 10
List (Audio) : 0
General
Complete name : /Volumes/1TB/Drop/+Music/Alaska & Dinarama/Rock Latino Clandestino/VIDEO_TS/VTS_02_0.IFO
Format : DVD Video
Format profile : Program
File size : 40.0 KiB
Duration : 40mn 35s
Overall bit rate mode : Variable
Overall bit rate : 134 bps
Video
ID : 224 (0xE0)
Format : MPEG Video
Format version : Version 2
Duration : 40mn 35s
Bit rate mode : Variable
Width : 720 pixels
Height : 480 pixels
Display aspect ratio : 4:3
Frame rate : 29.970 fps
Standard : NTSC
Compression mode : Lossy
Audio
ID : 128 (0x80)
Format : AC-3
Format/Info : Audio Coding 3
Duration : 40mn 35s
Channel(s) : 2 channels
Sampling rate : 48.0 KHz
Compression mode : Lossy
Menu
Duration : 40mn 35s
00:00:00.000 : Chapter 1
00:03:54.300 : Chapter 2
00:08:13.800 : Chapter 3
00:13:41.500 : Chapter 4
00:17:29.500 : Chapter 5
00:21:35.833 : Chapter 6
00:25:02.333 : Chapter 7
00:28:40.333 : Chapter 8
00:32:30.799 : Chapter 9
00:36:57.932 : Chapter 10
List (Audio) : 0
General
Complete name : /Volumes/1TB/Drop/+Music/Alaska & Dinarama/Rock Latino Clandestino/VIDEO_TS/VTS_02_0.VOB
Format : MPEG-PS
File size : 114 KiB
Duration : 400ms
Overall bit rate : 2 335 Kbps
Video
ID : 224 (0xE0)
Format : MPEG Video
Format version : Version 2
Format profile : [email protected]
Format settings, BVOP : Yes
Format settings, Matrix : Custom
Duration : 400ms
Maximum bit rate : 2 000 Kbps
Width : 720 pixels
Height : 480 pixels
Display aspect ratio : 4:3
Frame rate : 29.970 fps
Standard : NTSC
Color space : YUV
Chroma subsampling : 4:2:0
Bit depth : 8 bits
Scan type : Interlaced
Scan order : Top Field First
Compression mode : Lossy
Text
ID : 189 (0xBD)-32 (0x20)
Format : RLE
Format/Info : Run-length encoding
Muxing mode : DVD-Video
Menu
General
Complete name : /Volumes/1TB/Drop/+Music/Alaska & Dinarama/Rock Latino Clandestino/VIDEO_TS/VTS_02_1.VOB
Format : MPEG-PS
File size : 1 024 MiB
Duration : 24mn 45s
Overall bit rate : 5 783 Kbps
Video
ID : 224 (0xE0)
Format : MPEG Video
Format version : Version 2
Format profile : [email protected]
Format settings, BVOP : Yes
Format settings, Matrix : Default
Format settings, GOP : M=3, N=15
Duration : 24mn 45s
Bit rate : 5 476 Kbps
Maximum bit rate : 6 000 Kbps
Width : 720 pixels
Height : 480 pixels
Display aspect ratio : 4:3
Frame rate : 29.970 fps
Standard : NTSC
Color space : YUV
Chroma subsampling : 4:2:0
Bit depth : 8 bits
Scan type : Progressive
Compression mode : Lossy
Bits/(Pixel*Frame) : 0.529
Stream size : 969 MiB (95%)
Audio
ID : 189 (0xBD)-128 (0x80)
Format : AC-3
Format/Info : Audio Coding 3
Mode extension : CM (complete main)
Muxing mode : DVD-Video
Duration : 24mn 44s
Bit rate mode : Constant
Bit rate : 192 Kbps
Channel(s) : 2 channels
Channel positions : Front: L R
Sampling rate : 48.0 KHz
Bit depth : 16 bits
Compression mode : Lossy
Stream size : 34.0 MiB (3%)
Menu
General
Complete name : /Volumes/1TB/Drop/+Music/Alaska & Dinarama/Rock Latino Clandestino/VIDEO_TS/VTS_02_2.VOB
Format : MPEG-PS
File size : 717 MiB
Duration : 15mn 53s
Overall bit rate : 6 312 Kbps
Video
ID : 224 (0xE0)
Format : MPEG Video
Format version : Version 2
Format profile : [email protected]
Format settings, BVOP : Yes
Format settings, Matrix : Default
Format settings, GOP : M=3, N=15
Duration : 15mn 52s
Bit rate : 5 994 Kbps
Maximum bit rate : 6 000 Kbps
Width : 720 pixels
Height : 480 pixels
Display aspect ratio : 4:3
Frame rate : 29.970 fps
Standard : NTSC
Color space : YUV
Chroma subsampling : 4:2:0
Bit depth : 8 bits
Scan type : Progressive
Compression mode : Lossy
Bits/(Pixel*Frame) : 0.579
Stream size : 681 MiB (95%)
Audio
ID : 189 (0xBD)-128 (0x80)
Format : AC-3
Format/Info : Audio Coding 3
Mode extension : CM (complete main)
Muxing mode : DVD-Video
Duration : 15mn 53s
Bit rate mode : Constant
Bit rate : 192 Kbps
Channel(s) : 2 channels
Channel positions : Front: L R
Sampling rate : 48.0 KHz
Bit depth : 16 bits
Compression mode : Lossy
Stream size : 21.8 MiB (3%)
Menu
General
Complete name : /Volumes/1TB/Drop/+Music/Alaska & Dinarama/Rock Latino Clandestino/VIDEO_TS/VTS_03_0.BUP
Format : DVD Video
Format profile : Program
File size : 18.0 KiB
Duration : 4mn 18s
Overall bit rate mode : Variable
Overall bit rate : 569 bps
Video
ID : 224 (0xE0)
Format : MPEG Video
Format version : Version 2
Duration : 4mn 18s
Bit rate mode : Variable
Width : 720 pixels
Height : 480 pixels
Display aspect ratio : 4:3
Frame rate : 29.970 fps
Standard : NTSC
Compression mode : Lossy
Audio
ID : 128 (0x80)
Format : AC-3
Format/Info : Audio Coding 3
Duration : 4mn 18s
Channel(s) : 2 channels
Sampling rate : 48.0 KHz
Compression mode : Lossy
Menu
Duration : 4mn 18s
00:00:00.000 : Chapter 1
List (Audio) : 0
General
Complete name : /Volumes/1TB/Drop/+Music/Alaska & Dinarama/Rock Latino Clandestino/VIDEO_TS/VTS_03_0.IFO
Format : DVD Video
Format profile : Program
File size : 18.0 KiB
Duration : 4mn 18s
Overall bit rate mode : Variable
Overall bit rate : 569 bps
Video
ID : 224 (0xE0)
Format : MPEG Video
Format version : Version 2
Duration : 4mn 18s
Bit rate mode : Variable
Width : 720 pixels
Height : 480 pixels
Display aspect ratio : 4:3
Frame rate : 29.970 fps
Standard : NTSC
Compression mode : Lossy
Audio
ID : 128 (0x80)
Format : AC-3
Format/Info : Audio Coding 3
Duration : 4mn 18s
Channel(s) : 2 channels
Sampling rate : 48.0 KHz
Compression mode : Lossy
Menu
Duration : 4mn 18s
00:00:00.000 : Chapter 1
List (Audio) : 0
General
Complete name : /Volumes/1TB/Drop/+Music/Alaska & Dinarama/Rock Latino Clandestino/VIDEO_TS/VTS_03_0.VOB
Format : MPEG-PS
File size : 114 KiB
Duration : 400ms
Overall bit rate : 2 335 Kbps
Video
ID : 224 (0xE0)
Format : MPEG Video
Format version : Version 2
Format profile : [email protected]
Format settings, BVOP : Yes
Format settings, Matrix : Custom
Duration : 400ms
Maximum bit rate : 2 000 Kbps
Width : 720 pixels
Height : 480 pixels
Display aspect ratio : 4:3
Frame rate : 29.970 fps
Standard : NTSC
Color space : YUV
Chroma subsampling : 4:2:0
Bit depth : 8 bits
Scan type : Interlaced
Scan order : Top Field First
Compression mode : Lossy
Text
ID : 189 (0xBD)-32 (0x20)
Format : RLE
Format/Info : Run-length encoding
Muxing mode : DVD-Video
Menu
General
Complete name : /Volumes/1TB/Drop/+Music/Alaska & Dinarama/Rock Latino Clandestino/VIDEO_TS/VTS_03_1.VOB
Format : MPEG-PS
File size : 101 MiB
Duration : 4mn 19s
Overall bit rate : 3 278 Kbps
Video
ID : 224 (0xE0)
Format : MPEG Video
Format version : Version 2
Format profile : [email protected]
Format settings, BVOP : Yes
Format settings, Matrix : Default
Format settings, GOP : M=3, N=15
Duration : 4mn 19s
Bit rate : 3 000 Kbps
Width : 720 pixels
Height : 480 pixels
Display aspect ratio : 4:3
Frame rate : 29.970 fps
Standard : NTSC
Color space : YUV
Chroma subsampling : 4:2:0
Bit depth : 8 bits
Scan type : Progressive
Compression mode : Lossy
Bits/(Pixel*Frame) : 0.290
Stream size : 93.3 MiB (92%)
Audio
ID : 189 (0xBD)-128 (0x80)
Format : AC-3
Format/Info : Audio Coding 3
Mode extension : CM (complete main)
Muxing mode : DVD-Video
Duration : 4mn 19s
Bit rate mode : Constant
Bit rate : 192 Kbps
Channel(s) : 2 channels
Channel positions : Front: L R
Sampling rate : 48.0 KHz
Bit depth : 16 bits
Compression mode : Lossy
Stream size : 5.93 MiB (6%)
Menu
General
Complete name : /Volumes/1TB/Drop/+Music/Alaska & Dinarama/Rock Latino Clandestino/VIDEO_TS/VTS_04_0.BUP
Format : DVD Video
Format profile : Program
File size : 20.0 KiB
Duration : 5mn 27s
Overall bit rate mode : Variable
Overall bit rate : 499 bps
Video
ID : 224 (0xE0)
Format : MPEG Video
Format version : Version 2
Duration : 5mn 27s
Bit rate mode : Variable
Width : 720 pixels
Height : 480 pixels
Display aspect ratio : 4:3
Frame rate : 29.970 fps
Standard : NTSC
Compression mode : Lossy
Audio
ID : 128 (0x80)
Format : AC-3
Format/Info : Audio Coding 3
Duration : 5mn 27s
Channel(s) : 2 channels
Sampling rate : 48.0 KHz
Compression mode : Lossy
Menu
Duration : 5mn 27s
00:00:00.000 : Chapter 1
List (Audio) : 0
General
Complete name : /Volumes/1TB/Drop/+Music/Alaska & Dinarama/Rock Latino Clandestino/VIDEO_TS/VTS_04_0.IFO
Format : DVD Video
Format profile : Program
File size : 20.0 KiB
Duration : 5mn 27s
Overall bit rate mode : Variable
Overall bit rate : 499 bps
Video
ID : 224 (0xE0)
Format : MPEG Video
Format version : Version 2
Duration : 5mn 27s
Bit rate mode : Variable
Width : 720 pixels
Height : 480 pixels
Display aspect ratio : 4:3
Frame rate : 29.970 fps
Standard : NTSC
Compression mode : Lossy
Audio
ID : 128 (0x80)
Format : AC-3
Format/Info : Audio Coding 3
Duration : 5mn 27s
Channel(s) : 2 channels
Sampling rate : 48.0 KHz
Compression mode : Lossy
Menu
Duration : 5mn 27s
00:00:00.000 : Chapter 1
List (Audio) : 0
General
Complete name : /Volumes/1TB/Drop/+Music/Alaska & Dinarama/Rock Latino Clandestino/VIDEO_TS/VTS_04_0.VOB
Format : MPEG-PS
File size : 114 KiB
Duration : 400ms
Overall bit rate : 2 335 Kbps
Video
ID : 224 (0xE0)
Format : MPEG Video
Format version : Version 2
Format profile : [email protected]
Format settings, BVOP : Yes
Format settings, Matrix : Custom
Duration : 400ms
Maximum bit rate : 2 000 Kbps
Width : 720 pixels
Height : 480 pixels
Display aspect ratio : 4:3
Frame rate : 29.970 fps
Standard : NTSC
Color space : YUV
Chroma subsampling : 4:2:0
Bit depth : 8 bits
Scan type : Interlaced
Scan order : Top Field First
Compression mode : Lossy
Text
ID : 189 (0xBD)-32 (0x20)
Format : RLE
Format/Info : Run-length encoding
Muxing mode : DVD-Video
Menu
General
Complete name : /Volumes/1TB/Drop/+Music/Alaska & Dinarama/Rock Latino Clandestino/VIDEO_TS/VTS_04_1.VOB
Format : MPEG-PS
File size : 247 MiB
Duration : 5mn 28s
Overall bit rate : 6 312 Kbps
Video
ID : 224 (0xE0)
Format : MPEG Video
Format version : Version 2
Format profile : [email protected]
Format settings, BVOP : Yes
Format settings, Matrix : Default
Format settings, GOP : M=3, N=15
Duration : 5mn 27s
Bit rate : 5 995 Kbps
Maximum bit rate : 6 000 Kbps
Width : 720 pixels
Height : 480 pixels
Display aspect ratio : 4:3
Frame rate : 29.970 fps
Standard : NTSC
Color space : YUV
Chroma subsampling : 4:2:0
Bit depth : 8 bits
Scan type : Progressive
Compression mode : Lossy
Bits/(Pixel*Frame) : 0.579
Stream size : 234 MiB (95%)
Audio
ID : 189 (0xBD)-128 (0x80)
Format : AC-3
Format/Info : Audio Coding 3
Mode extension : CM (complete main)
Muxing mode : DVD-Video
Duration : 5mn 28s
Bit rate mode : Constant
Bit rate : 192 Kbps
Channel(s) : 2 channels
Channel positions : Front: L R
Sampling rate : 48.0 KHz
Bit depth : 16 bits
Compression mode : Lossy
Stream size : 7.51 MiB (3%)
Menu
General
Complete name : /Volumes/1TB/Drop/+Music/Alaska & Dinarama/Rock Latino Clandestino/VIDEO_TS/VTS_05_0.BUP
Format : DVD Video
Format profile : Program
File size : 18.0 KiB
Duration : 3mn 48s
Overall bit rate mode : Variable
Overall bit rate : 645 bps
Video
ID : 224 (0xE0)
Format : MPEG Video
Format version : Version 2
Duration : 3mn 48s
Bit rate mode : Variable
Width : 720 pixels
Height : 480 pixels
Display aspect ratio : 4:3
Frame rate : 29.970 fps
Standard : NTSC
Compression mode : Lossy
Audio
ID : 128 (0x80)
Format : AC-3
Format/Info : Audio Coding 3
Duration : 3mn 48s
Channel(s) : 2 channels
Sampling rate : 48.0 KHz
Compression mode : Lossy
Menu
Duration : 3mn 48s
00:00:00.000 : Chapter 1
List (Audio) : 0
General
Complete name : /Volumes/1TB/Drop/+Music/Alaska & Dinarama/Rock Latino Clandestino/VIDEO_TS/VTS_05_0.IFO
Format : DVD Video
Format profile : Program
File size : 18.0 KiB
Duration : 3mn 48s
Overall bit rate mode : Variable
Overall bit rate : 645 bps
Video
ID : 224 (0xE0)
Format : MPEG Video
Format version : Version 2
Duration : 3mn 48s
Bit rate mode : Variable
Width : 720 pixels
Height : 480 pixels
Display aspect ratio : 4:3
Frame rate : 29.970 fps
Standard : NTSC
Compression mode : Lossy
Audio
ID : 128 (0x80)
Format : AC-3
Format/Info : Audio Coding 3
Duration : 3mn 48s
Channel(s) : 2 channels
Sampling rate : 48.0 KHz
Compression mode : Lossy
Menu
Duration : 3mn 48s
00:00:00.000 : Chapter 1
List (Audio) : 0
General
Complete name : /Volumes/1TB/Drop/+Music/Alaska & Dinarama/Rock Latino Clandestino/VIDEO_TS/VTS_05_0.VOB
Format : MPEG-PS
File size : 114 KiB
Duration : 400ms
Overall bit rate : 2 335 Kbps
Video
ID : 224 (0xE0)
Format : MPEG Video
Format version : Version 2
Format profile : [email protected]
Format settings, BVOP : Yes
Format settings, Matrix : Custom
Duration : 400ms
Maximum bit rate : 2 000 Kbps
Width : 720 pixels
Height : 480 pixels
Display aspect ratio : 4:3
Frame rate : 29.970 fps
Standard : NTSC
Color space : YUV
Chroma subsampling : 4:2:0
Bit depth : 8 bits
Scan type : Interlaced
Scan order : Top Field First
Compression mode : Lossy
Text
ID : 189 (0xBD)-32 (0x20)
Format : RLE
Format/Info : Run-length encoding
Muxing mode : DVD-Video
Menu
General
Complete name : /Volumes/1TB/Drop/+Music/Alaska & Dinarama/Rock Latino Clandestino/VIDEO_TS/VTS_05_1.VOB
Format : MPEG-PS
File size : 172 MiB
Duration : 3mn 48s
Overall bit rate : 6 312 Kbps
Video
ID : 224 (0xE0)
Format : MPEG Video
Format version : Version 2
Format profile : [email protected]
Format settings, BVOP : Yes
Format settings, Matrix : Default
Format settings, GOP : M=3, N=15
Duration : 3mn 48s
Bit rate : 5 994 Kbps
Maximum bit rate : 6 000 Kbps
Width : 720 pixels
Height : 480 pixels
Display aspect ratio : 4:3
Frame rate : 29.970 fps
Standard : NTSC
Color space : YUV
Chroma subsampling : 4:2:0
Bit depth : 8 bits
Scan type : Progressive
Compression mode : Lossy
Bits/(Pixel*Frame) : 0.579
Stream size : 163 MiB (95%)
Audio
ID : 189 (0xBD)-128 (0x80)
Format : AC-3
Format/Info : Audio Coding 3
Mode extension : CM (complete main)
Muxing mode : DVD-Video
Duration : 3mn 48s
Bit rate mode : Constant
Bit rate : 192 Kbps
Channel(s) : 2 channels
Channel positions : Front: L R
Sampling rate : 48.0 KHz
Bit depth : 16 bits
Compression mode : Lossy
Stream size : 5.23 MiB (3%)
Menu
General
Complete name : /Volumes/1TB/Drop/+Music/Alaska & Dinarama/Rock Latino Clandestino/VIDEO_TS/VTS_06_0.BUP
Format : DVD Video
Format profile : Program
File size : 18.0 KiB
Duration : 4mn 5s
Overall bit rate mode : Variable
Overall bit rate : 600 bps
Video
ID : 224 (0xE0)
Format : MPEG Video
Format version : Version 2
Duration : 4mn 5s
Bit rate mode : Variable
Width : 720 pixels
Height : 480 pixels
Display aspect ratio : 4:3
Frame rate : 29.970 fps
Standard : NTSC
Compression mode : Lossy
Audio
ID : 128 (0x80)
Format : AC-3
Format/Info : Audio Coding 3
Duration : 4mn 5s
Channel(s) : 2 channels
Sampling rate : 48.0 KHz
Compression mode : Lossy
Menu
Duration : 4mn 5s
00:00:00.000 : Chapter 1
List (Audio) : 0
General
Complete name : /Volumes/1TB/Drop/+Music/Alaska & Dinarama/Rock Latino Clandestino/VIDEO_TS/VTS_06_0.IFO
Format : DVD Video
Format profile : Program
File size : 18.0 KiB
Duration : 4mn 5s
Overall bit rate mode : Variable
Overall bit rate : 600 bps
Video
ID : 224 (0xE0)
Format : MPEG Video
Format version : Version 2
Duration : 4mn 5s
Bit rate mode : Variable
Width : 720 pixels
Height : 480 pixels
Display aspect ratio : 4:3
Frame rate : 29.970 fps
Standard : NTSC
Compression mode : Lossy
Audio
ID : 128 (0x80)
Format : AC-3
Format/Info : Audio Coding 3
Duration : 4mn 5s
Channel(s) : 2 channels
Sampling rate : 48.0 KHz
Compression mode : Lossy
Menu
Duration : 4mn 5s
00:00:00.000 : Chapter 1
List (Audio) : 0
General
Complete name : /Volumes/1TB/Drop/+Music/Alaska & Dinarama/Rock Latino Clandestino/VIDEO_TS/VTS_06_0.VOB
Format : MPEG-PS
File size : 114 KiB
Duration : 400ms
Overall bit rate : 2 335 Kbps
Video
ID : 224 (0xE0)
Format : MPEG Video
Format version : Version 2
Format profile : [email protected]
Format settings, BVOP : Yes
Format settings, Matrix : Custom
Duration : 400ms
Maximum bit rate : 2 000 Kbps
Width : 720 pixels
Height : 480 pixels
Display aspect ratio : 4:3
Frame rate : 29.970 fps
Standard : NTSC
Color space : YUV
Chroma subsampling : 4:2:0
Bit depth : 8 bits
Scan type : Interlaced
Scan order : Top Field First
Compression mode : Lossy
Text
ID : 189 (0xBD)-32 (0x20)
Format : RLE
Format/Info : Run-length encoding
Muxing mode : DVD-Video
Menu
General
Complete name : /Volumes/1TB/Drop/+Music/Alaska & Dinarama/Rock Latino Clandestino/VIDEO_TS/VTS_06_1.VOB
Format : MPEG-PS
File size : 185 MiB
Duration : 4mn 5s
Overall bit rate : 6 312 Kbps
Video
ID : 224 (0xE0)
Format : MPEG Video
Format version : Version 2
Format profile : [email protected]
Format settings, BVOP : Yes
Format settings, Matrix : Default
Duration : 4mn 5s
Bit rate : 5 994 Kbps
Maximum bit rate : 6 000 Kbps
Width : 720 pixels
Height : 480 pixels
Display aspect ratio : 4:3
Frame rate : 29.970 fps
Standard : NTSC
Color space : YUV
Chroma subsampling : 4:2:0
Bit depth : 8 bits
Scan type : Progressive
Compression mode : Lossy
Bits/(Pixel*Frame) : 0.579
Stream size : 176 MiB (95%)
Audio
ID : 189 (0xBD)-128 (0x80)
Format : AC-3
Format/Info : Audio Coding 3
Mode extension : CM (complete main)
Muxing mode : DVD-Video
Duration : 4mn 5s
Bit rate mode : Constant
Bit rate : 192 Kbps
Channel(s) : 2 channels
Channel positions : Front: L R
Sampling rate : 48.0 KHz
Bit depth : 16 bits
Compression mode : Lossy
Stream size : 5.62 MiB (3%)
Menu
General
Complete name : /Volumes/1TB/Drop/+Music/Alaska & Dinarama/Rock Latino Clandestino/VIDEO_TS/VTS_07_0.BUP
Format : DVD Video
Format profile : Program
File size : 18.0 KiB
Duration : 3mn 27s
Overall bit rate mode : Variable
Overall bit rate : 711 bps
Video
ID : 224 (0xE0)
Format : MPEG Video
Format version : Version 2
Duration : 3mn 27s
Bit rate mode : Variable
Width : 720 pixels
Height : 480 pixels
Display aspect ratio : 4:3
Frame rate : 29.970 fps
Standard : NTSC
Compression mode : Lossy
Audio
ID : 128 (0x80)
Format : AC-3
Format/Info : Audio Coding 3
Duration : 3mn 27s
Channel(s) : 2 channels
Sampling rate : 48.0 KHz
Compression mode : Lossy
Menu
Duration : 3mn 27s
00:00:00.000 : Chapter 1
List (Audio) : 0
General
Complete name : /Volumes/1TB/Drop/+Music/Alaska & Dinarama/Rock Latino Clandestino/VIDEO_TS/VTS_07_0.IFO
Format : DVD Video
Format profile : Program
File size : 18.0 KiB
Duration : 3mn 27s
Overall bit rate mode : Variable
Overall bit rate : 711 bps
Video
ID : 224 (0xE0)
Format : MPEG Video
Format version : Version 2
Duration : 3mn 27s
Bit rate mode : Variable
Width : 720 pixels
Height : 480 pixels
Display aspect ratio : 4:3
Frame rate : 29.970 fps
Standard : NTSC
Compression mode : Lossy
Audio
ID : 128 (0x80)
Format : AC-3
Format/Info : Audio Coding 3
Duration : 3mn 27s
Channel(s) : 2 channels
Sampling rate : 48.0 KHz
Compression mode : Lossy
Menu
Duration : 3mn 27s
00:00:00.000 : Chapter 1
List (Audio) : 0
General
Complete name : /Volumes/1TB/Drop/+Music/Alaska & Dinarama/Rock Latino Clandestino/VIDEO_TS/VTS_07_0.VOB
Format : MPEG-PS
File size : 114 KiB
Duration : 400ms
Overall bit rate : 2 335 Kbps
Video
ID : 224 (0xE0)
Format : MPEG Video
Format version : Version 2
Format profile : [email protected]
Format settings, BVOP : Yes
Format settings, Matrix : Custom
Duration : 400ms
Maximum bit rate : 2 000 Kbps
Width : 720 pixels
Height : 480 pixels
Display aspect ratio : 4:3
Frame rate : 29.970 fps
Standard : NTSC
Color space : YUV
Chroma subsampling : 4:2:0
Bit depth : 8 bits
Scan type : Interlaced
Scan order : Top Field First
Compression mode : Lossy
Text
ID : 189 (0xBD)-32 (0x20)
Format : RLE
Format/Info : Run-length encoding
Muxing mode : DVD-Video
Menu
General
Complete name : /Volumes/1TB/Drop/+Music/Alaska & Dinarama/Rock Latino Clandestino/VIDEO_TS/VTS_07_1.VOB
Format : MPEG-PS
File size : 156 MiB
Duration : 3mn 27s
Overall bit rate : 6 312 Kbps
Video
ID : 224 (0xE0)
Format : MPEG Video
Format version : Version 2
Format profile : [email protected]
Format settings, BVOP : Yes
Format settings, Matrix : Default
Format settings, GOP : M=3, N=15
Duration : 3mn 27s
Bit rate : 5 994 Kbps
Maximum bit rate : 6 000 Kbps
Width : 720 pixels
Height : 480 pixels
Display aspect ratio : 4:3
Frame rate : 29.970 fps
Standard : NTSC
Color space : YUV
Chroma subsampling : 4:2:0
Bit depth : 8 bits
Scan type : Progressive
Compression mode : Lossy
Bits/(Pixel*Frame) : 0.579
Stream size : 148 MiB (95%)
Audio
ID : 189 (0xBD)-128 (0x80)
Format : AC-3
Format/Info : Audio Coding 3
Mode extension : CM (complete main)
Muxing mode : DVD-Video
Duration : 3mn 27s
Bit rate mode : Constant
Bit rate : 192 Kbps
Channel(s) : 2 channels
Channel positions : Front: L R
Sampling rate : 48.0 KHz
Bit depth : 16 bits
Compression mode : Lossy
Stream size : 4.75 MiB (3%)
Menu
General
Complete name : /Volumes/1TB/Drop/+Music/Alaska & Dinarama/Rock Latino Clandestino/VIDEO_TS/VTS_08_0.BUP
Format : DVD Video
Format profile : Program
File size : 18.0 KiB
Duration : 21s 433ms
Overall bit rate mode : Variable
Overall bit rate : 6 879 bps
Video
ID : 224 (0xE0)
Format : MPEG Video
Format version : Version 2
Duration : 21s 421ms
Bit rate mode : Variable
Width : 720 pixels
Height : 480 pixels
Display aspect ratio : 4:3
Frame rate : 29.970 fps
Standard : NTSC
Compression mode : Lossy
Menu
Duration : 21s 433ms
00:00:00.000 : Chapter 1
General
Complete name : /Volumes/1TB/Drop/+Music/Alaska & Dinarama/Rock Latino Clandestino/VIDEO_TS/VTS_08_0.IFO
Format : DVD Video
Format profile : Program
File size : 18.0 KiB
Duration : 21s 433ms
Overall bit rate mode : Variable
Overall bit rate : 6 879 bps
Video
ID : 224 (0xE0)
Format : MPEG Video
Format version : Version 2
Duration : 21s 421ms
Bit rate mode : Variable
Width : 720 pixels
Height : 480 pixels
Display aspect ratio : 4:3
Frame rate : 29.970 fps
Standard : NTSC
Compression mode : Lossy
Menu
Duration : 21s 433ms
00:00:00.000 : Chapter 1
General
Complete name : /Volumes/1TB/Drop/+Music/Alaska & Dinarama/Rock Latino Clandestino/VIDEO_TS/VTS_08_0.VOB
Format : MPEG-PS
File size : 114 KiB
Duration : 400ms
Overall bit rate : 2 335 Kbps
Video
ID : 224 (0xE0)
Format : MPEG Video
Format version : Version 2
Format profile : [email protected]
Format settings, BVOP : Yes
Format settings, Matrix : Custom
Duration : 400ms
Maximum bit rate : 2 000 Kbps
Width : 720 pixels
Height : 480 pixels
Display aspect ratio : 4:3
Frame rate : 29.970 fps
Standard : NTSC
Color space : YUV
Chroma subsampling : 4:2:0
Bit depth : 8 bits
Scan type : Interlaced
Scan order : Top Field First
Compression mode : Lossy
Text
ID : 189 (0xBD)-32 (0x20)
Format : RLE
Format/Info : Run-length encoding
Muxing mode : DVD-Video
Menu
General
Complete name : /Volumes/1TB/Drop/+Music/Alaska & Dinarama/Rock Latino Clandestino/VIDEO_TS/VTS_08_1.VOB
Format : MPEG-PS
File size : 9.55 MiB
Duration : 21s 388ms
Overall bit rate mode : Variable
Overall bit rate : 3 747 Kbps
Video
ID : 224 (0xE0)
Format : MPEG Video
Format version : Version 2
Format profile : [email protected]
Format settings, BVOP : Yes
Format settings, Matrix : Default
Format settings, GOP : M=3, N=15
Duration : 21s 388ms
Bit rate mode : Variable
Bit rate : 3 673 Kbps
Maximum bit rate : 7 000 Kbps
Width : 720 pixels
Height : 480 pixels
Display aspect ratio : 4:3
Frame rate : 29.970 fps
Standard : NTSC
Color space : YUV
Chroma subsampling : 4:2:0
Bit depth : 8 bits
Scan type : Interlaced
Scan order : Bottom Field First
Compression mode : Lossy
Bits/(Pixel*Frame) : 0.355
Stream size : 9.36 MiB (98%)
Menu
General
Complete name : /Volumes/1TB/Drop/+Music/Alaska & Dinarama/Rock Latino Clandestino/VIDEO_TS/VTS_09_0.BUP
Format : DVD Video
Format profile : Program
File size : 18.0 KiB
Duration : 3mn 38s
Overall bit rate mode : Variable
Overall bit rate : 676 bps
Video
ID : 224 (0xE0)
Format : MPEG Video
Format version : Version 2
Duration : 3mn 37s
Bit rate mode : Variable
Width : 720 pixels
Height : 480 pixels
Display aspect ratio : 4:3
Frame rate : 29.970 fps
Standard : NTSC
Compression mode : Lossy
Audio
ID : 128 (0x80)
Format : AC-3
Format/Info : Audio Coding 3
Duration : 3mn 38s
Channel(s) : 2 channels
Sampling rate : 48.0 KHz
Compression mode : Lossy
Menu
Duration : 3mn 38s
00:00:00.000 : Chapter 1
List (Audio) : 0
General
Complete name : /Volumes/1TB/Drop/+Music/Alaska & Dinarama/Rock Latino Clandestino/VIDEO_TS/VTS_09_0.IFO
Format : DVD Video
Format profile : Program
File size : 18.0 KiB
Duration : 3mn 38s
Overall bit rate mode : Variable
Overall bit rate : 676 bps
Video
ID : 224 (0xE0)
Format : MPEG Video
Format version : Version 2
Duration : 3mn 37s
Bit rate mode : Variable
Width : 720 pixels
Height : 480 pixels
Display aspect ratio : 4:3
Frame rate : 29.970 fps
Standard : NTSC
Compression mode : Lossy
Audio
ID : 128 (0x80)
Format : AC-3
Format/Info : Audio Coding 3
Duration : 3mn 38s
Channel(s) : 2 channels
Sampling rate : 48.0 KHz
Compression mode : Lossy
Menu
Duration : 3mn 38s
00:00:00.000 : Chapter 1
List (Audio) : 0
General
Complete name : /Volumes/1TB/Drop/+Music/Alaska & Dinarama/Rock Latino Clandestino/VIDEO_TS/VTS_09_0.VOB
Format : MPEG-PS
File size : 114 KiB
Duration : 400ms
Overall bit rate : 2 335 Kbps
Video
ID : 224 (0xE0)
Format : MPEG Video
Format version : Version 2
Format profile : [email protected]
Format settings, BVOP : Yes
Format settings, Matrix : Custom
Duration : 400ms
Maximum bit rate : 2 000 Kbps
Width : 720 pixels
Height : 480 pixels
Display aspect ratio : 4:3
Frame rate : 29.970 fps
Standard : NTSC
Color space : YUV
Chroma subsampling : 4:2:0
Bit depth : 8 bits
Scan type : Interlaced
Scan order : Top Field First
Compression mode : Lossy
Text
ID : 189 (0xBD)-32 (0x20)
Format : RLE
Format/Info : Run-length encoding
Muxing mode : DVD-Video
Menu
General
Complete name : /Volumes/1TB/Drop/+Music/Alaska & Dinarama/Rock Latino Clandestino/VIDEO_TS/VTS_09_1.VOB
Format : MPEG-PS
File size : 164 MiB
Duration : 3mn 38s
Overall bit rate : 6 311 Kbps
Video
ID : 224 (0xE0)
Format : MPEG Video
Format version : Version 2
Format profile : [email protected]
Format settings, BVOP : Yes
Format settings, Matrix : Default
Format settings, GOP : M=3, N=15
Duration : 3mn 38s
Bit rate : 5 994 Kbps
Maximum bit rate : 6 000 Kbps
Width : 720 pixels
Height : 480 pixels
Display aspect ratio : 4:3
Frame rate : 29.970 fps
Standard : NTSC
Color space : YUV
Chroma subsampling : 4:2:0
Bit depth : 8 bits
Scan type : Progressive
Compression mode : Lossy
Bits/(Pixel*Frame) : 0.579
Stream size : 156 MiB (95%)
Audio
ID : 189 (0xBD)-128 (0x80)
Format : AC-3
Format/Info : Audio Coding 3
Mode extension : CM (complete main)
Muxing mode : DVD-Video
Duration : 3mn 38s
Bit rate mode : Constant
Bit rate : 192 Kbps
Channel(s) : 2 channels
Channel positions : Front: L R
Sampling rate : 48.0 KHz
Bit depth : 16 bits
Compression mode : Lossy
Stream size : 5.00 MiB (3%)
Menu
General
Complete name : /Volumes/1TB/Drop/+Music/Alaska & Dinarama/Rock Latino Clandestino/VIDEO_TS/VTS_10_0.BUP
Format : DVD Video
Format profile : Program
File size : 18.0 KiB
Duration : 3mn 49s
Overall bit rate mode : Variable
Overall bit rate : 642 bps
Video
ID : 224 (0xE0)
Format : MPEG Video
Format version : Version 2
Duration : 3mn 49s
Bit rate mode : Variable
Width : 720 pixels
Height : 480 pixels
Display aspect ratio : 4:3
Frame rate : 29.970 fps
Standard : NTSC
Compression mode : Lossy
Audio
ID : 128 (0x80)
Format : AC-3
Format/Info : Audio Coding 3
Duration : 3mn 49s
Channel(s) : 2 channels
Sampling rate : 48.0 KHz
Compression mode : Lossy
Menu
Duration : 3mn 49s
00:00:00.000 : Chapter 1
List (Audio) : 0
General
Complete name : /Volumes/1TB/Drop/+Music/Alaska & Dinarama/Rock Latino Clandestino/VIDEO_TS/VTS_10_0.IFO
Format : DVD Video
Format profile : Program
File size : 18.0 KiB
Duration : 3mn 49s
Overall bit rate mode : Variable
Overall bit rate : 642 bps
Video
ID : 224 (0xE0)
Format : MPEG Video
Format version : Version 2
Duration : 3mn 49s
Bit rate mode : Variable
Width : 720 pixels
Height : 480 pixels
Display aspect ratio : 4:3
Frame rate : 29.970 fps
Standard : NTSC
Compression mode : Lossy
Audio
ID : 128 (0x80)
Format : AC-3
Format/Info : Audio Coding 3
Duration : 3mn 49s
Channel(s) : 2 channels
Sampling rate : 48.0 KHz
Compression mode : Lossy
Menu
Duration : 3mn 49s
00:00:00.000 : Chapter 1
List (Audio) : 0
General
Complete name : /Volumes/1TB/Drop/+Music/Alaska & Dinarama/Rock Latino Clandestino/VIDEO_TS/VTS_10_0.VOB
Format : MPEG-PS
File size : 114 KiB
Duration : 400ms
Overall bit rate : 2 335 Kbps
Video
ID : 224 (0xE0)
Format : MPEG Video
Format version : Version 2
Format profile : [email protected]
Format settings, BVOP : Yes
Format settings, Matrix : Custom
Duration : 400ms
Maximum bit rate : 2 000 Kbps
Width : 720 pixels
Height : 480 pixels
Display aspect ratio : 4:3
Frame rate : 29.970 fps
Standard : NTSC
Color space : YUV
Chroma subsampling : 4:2:0
Bit depth : 8 bits
Scan type : Interlaced
Scan order : Top Field First
Compression mode : Lossy
Text
ID : 189 (0xBD)-32 (0x20)
Format : RLE
Format/Info : Run-length encoding
Muxing mode : DVD-Video
Menu
General
Complete name : /Volumes/1TB/Drop/+Music/Alaska & Dinarama/Rock Latino Clandestino/VIDEO_TS/VTS_10_1.VOB
Format : MPEG-PS
File size : 173 MiB
Duration : 3mn 49s
Overall bit rate : 6 313 Kbps
Video
ID : 224 (0xE0)
Format : MPEG Video
Format version : Version 2
Format profile : [email protected]
Format settings, BVOP : Yes
Format settings, Matrix : Default
Format settings, GOP : M=3, N=15
Duration : 3mn 49s
Bit rate : 5 995 Kbps
Maximum bit rate : 6 000 Kbps
Width : 720 pixels
Height : 480 pixels
Display aspect ratio : 4:3
Frame rate : 29.970 fps
Standard : NTSC
Color space : YUV
Chroma subsampling : 4:2:0
Bit depth : 8 bits
Scan type : Progressive
Compression mode : Lossy
Bits/(Pixel*Frame) : 0.579
Stream size : 164 MiB (95%)
Audio
ID : 189 (0xBD)-128 (0x80)
Format : AC-3
Format/Info : Audio Coding 3
Mode extension : CM (complete main)
Muxing mode : DVD-Video
Duration : 3mn 49s
Bit rate mode : Constant
Bit rate : 192 Kbps
Channel(s) : 2 channels
Channel positions : Front: L R
Sampling rate : 48.0 KHz
Bit depth : 16 bits
Compression mode : Lossy
Stream size : 5.26 MiB (3%)
Menu
General
Complete name : /Volumes/1TB/Drop/+Music/Alaska & Dinarama/Rock Latino Clandestino/VIDEO_TS/VTS_11_0.BUP
Format : DVD Video
Format profile : Program
File size : 20.0 KiB
Duration : 4mn 27s
Overall bit rate mode : Variable
Overall bit rate : 613 bps
Video
ID : 224 (0xE0)
Format : MPEG Video
Format version : Version 2
Duration : 4mn 27s
Bit rate mode : Variable
Width : 720 pixels
Height : 480 pixels
Display aspect ratio : 4:3
Frame rate : 29.970 fps
Standard : NTSC
Compression mode : Lossy
Audio
ID : 128 (0x80)
Format : AC-3
Format/Info : Audio Coding 3
Duration : 4mn 27s
Channel(s) : 2 channels
Sampling rate : 48.0 KHz
Compression mode : Lossy
Menu
Duration : 4mn 27s
00:00:00.000 : Chapter 1
List (Audio) : 0
General
Complete name : /Volumes/1TB/Drop/+Music/Alaska & Dinarama/Rock Latino Clandestino/VIDEO_TS/VTS_11_0.IFO
Format : DVD Video
Format profile : Program
File size : 20.0 KiB
Duration : 4mn 27s
Overall bit rate mode : Variable
Overall bit rate : 613 bps
Video
ID : 224 (0xE0)
Format : MPEG Video
Format version : Version 2
Duration : 4mn 27s
Bit rate mode : Variable
Width : 720 pixels
Height : 480 pixels
Display aspect ratio : 4:3
Frame rate : 29.970 fps
Standard : NTSC
Compression mode : Lossy
Audio
ID : 128 (0x80)
Format : AC-3
Format/Info : Audio Coding 3
Duration : 4mn 27s
Channel(s) : 2 channels
Sampling rate : 48.0 KHz
Compression mode : Lossy
Menu
Duration : 4mn 27s
00:00:00.000 : Chapter 1
List (Audio) : 0
General
Complete name : /Volumes/1TB/Drop/+Music/Alaska & Dinarama/Rock Latino Clandestino/VIDEO_TS/VTS_11_0.VOB
Format : MPEG-PS
File size : 114 KiB
Duration : 400ms
Overall bit rate : 2 335 Kbps
Video
ID : 224 (0xE0)
Format : MPEG Video
Format version : Version 2
Format profile : [email protected]
Format settings, BVOP : Yes
Format settings, Matrix : Custom
Duration : 400ms
Maximum bit rate : 2 000 Kbps
Width : 720 pixels
Height : 480 pixels
Display aspect ratio : 4:3
Frame rate : 29.970 fps
Standard : NTSC
Color space : YUV
Chroma subsampling : 4:2:0
Bit depth : 8 bits
Scan type : Interlaced
Scan order : Top Field First
Compression mode : Lossy
Text
ID : 189 (0xBD)-32 (0x20)
Format : RLE
Format/Info : Run-length encoding
Muxing mode : DVD-Video
Menu
General
Complete name : /Volumes/1TB/Drop/+Music/Alaska & Dinarama/Rock Latino Clandestino/VIDEO_TS/VTS_11_1.VOB
Format : MPEG-PS
File size : 201 MiB
Duration : 4mn 27s
Overall bit rate : 6 312 Kbps
Video
ID : 224 (0xE0)
Format : MPEG Video
Format version : Version 2
Format profile : [email protected]
Format settings, BVOP : Yes
Format settings, Matrix : Default
Format settings, GOP : M=3, N=15
Duration : 4mn 27s
Bit rate : 5 994 Kbps
Maximum bit rate : 6 000 Kbps
Width : 720 pixels
Height : 480 pixels
Display aspect ratio : 4:3
Frame rate : 29.970 fps
Standard : NTSC
Color space : YUV
Chroma subsampling : 4:2:0
Bit depth : 8 bits
Scan type : Progressive
Compression mode : Lossy
Bits/(Pixel*Frame) : 0.579
Stream size : 191 MiB (95%)
Audio
ID : 189 (0xBD)-128 (0x80)
Format : AC-3
Format/Info : Audio Coding 3
Mode extension : CM (complete main)
Muxing mode : DVD-Video
Duration : 4mn 27s
Bit rate mode : Constant
Bit rate : 192 Kbps
Channel(s) : 2 channels
Channel positions : Front: L R
Sampling rate : 48.0 KHz
Bit depth : 16 bits
Compression mode : Lossy
Stream size : 6.12 MiB (3%)
Menu
General
Complete name : /Volumes/1TB/Drop/+Music/Alaska & Dinarama/Rock Latino Clandestino/VIDEO_TS/VTS_12_0.BUP
Format : DVD Video
Format profile : Program
File size : 18.0 KiB
Duration : 3mn 38s
Overall bit rate mode : Variable
Overall bit rate : 675 bps
Video
ID : 224 (0xE0)
Format : MPEG Video
Format version : Version 2
Duration : 3mn 38s
Bit rate mode : Variable
Width : 720 pixels
Height : 480 pixels
Display aspect ratio : 4:3
Frame rate : 29.970 fps
Standard : NTSC
Compression mode : Lossy
Audio
ID : 128 (0x80)
Format : AC-3
Format/Info : Audio Coding 3
Duration : 3mn 38s
Channel(s) : 2 channels
Sampling rate : 48.0 KHz
Compression mode : Lossy
Menu
Duration : 3mn 38s
00:00:00.000 : Chapter 1
List (Audio) : 0
General
Complete name : /Volumes/1TB/Drop/+Music/Alaska & Dinarama/Rock Latino Clandestino/VIDEO_TS/VTS_12_0.IFO
Format : DVD Video
Format profile : Program
File size : 18.0 KiB
Duration : 3mn 38s
Overall bit rate mode : Variable
Overall bit rate : 675 bps
Video
ID : 224 (0xE0)
Format : MPEG Video
Format version : Version 2
Duration : 3mn 38s
Bit rate mode : Variable
Width : 720 pixels
Height : 480 pixels
Display aspect ratio : 4:3
Frame rate : 29.970 fps
Standard : NTSC
Compression mode : Lossy
Audio
ID : 128 (0x80)
Format : AC-3
Format/Info : Audio Coding 3
Duration : 3mn 38s
Channel(s) : 2 channels
Sampling rate : 48.0 KHz
Compression mode : Lossy
Menu
Duration : 3mn 38s
00:00:00.000 : Chapter 1
List (Audio) : 0
General
Complete name : /Volumes/1TB/Drop/+Music/Alaska & Dinarama/Rock Latino Clandestino/VIDEO_TS/VTS_12_0.VOB
Format : MPEG-PS
File size : 114 KiB
Duration : 400ms
Overall bit rate : 2 335 Kbps
Video
ID : 224 (0xE0)
Format : MPEG Video
Format version : Version 2
Format profile : [email protected]
Format settings, BVOP : Yes
Format settings, Matrix : Custom
Duration : 400ms
Maximum bit rate : 2 000 Kbps
Width : 720 pixels
Height : 480 pixels
Display aspect ratio : 4:3
Frame rate : 29.970 fps
Standard : NTSC
Color space : YUV
Chroma subsampling : 4:2:0
Bit depth : 8 bits
Scan type : Interlaced
Scan order : Top Field First
Compression mode : Lossy
Text
ID : 189 (0xBD)-32 (0x20)
Format : RLE
Format/Info : Run-length encoding
Muxing mode : DVD-Video
Menu
General
Complete name : /Volumes/1TB/Drop/+Music/Alaska & Dinarama/Rock Latino Clandestino/VIDEO_TS/VTS_12_1.VOB
Format : MPEG-PS
File size : 164 MiB
Duration : 3mn 38s
Overall bit rate : 6 312 Kbps
Video
ID : 224 (0xE0)
Format : MPEG Video
Format version : Version 2
Format profile : [email protected]
Format settings, BVOP : Yes
Format settings, Matrix : Default
Format settings, GOP : M=3, N=15
Duration : 3mn 38s
Bit rate : 5 995 Kbps
Maximum bit rate : 6 000 Kbps
Width : 720 pixels
Height : 480 pixels
Display aspect ratio : 4:3
Frame rate : 29.970 fps
Standard : NTSC
Color space : YUV
Chroma subsampling : 4:2:0
Bit depth : 8 bits
Scan type : Progressive
Compression mode : Lossy
Bits/(Pixel*Frame) : 0.579
Stream size : 156 MiB (95%)
Audio
ID : 189 (0xBD)-128 (0x80)
Format : AC-3
Format/Info : Audio Coding 3
Mode extension : CM (complete main)
Muxing mode : DVD-Video
Duration : 3mn 38s
Bit rate mode : Constant
Bit rate : 192 Kbps
Channel(s) : 2 channels
Channel positions : Front: L R
Sampling rate : 48.0 KHz
Bit depth : 16 bits
Compression mode : Lossy
Stream size : 5.00 MiB (3%)
Menu

[3.47 GB] Скачать / Download