Azis / Азис - Azis - Скачать

Год выпуска: 2007
Страна: Болгария
Жанр: Bulgarian, Pop, Chalga
Продолжительность: 01:10:00
Описание: / Clips

----------------------------------------------------------------------------
Разбивка на главы по трекам:есть
Качество :DVD
Формат:DVD5
Видео кодек:MPEG2
Аудио кодек:MP2
Видео :720x576, 16:9, 8 mbps
Аудио:Dolby Digital 2ch, 48 kHz-С этой раздачи я ушёл и из архива поднять её не смогу! Просьба к скачавшим - сидировать как можно дольше

cd, трек, бесплатно, высокое качество, download, pop, композиции, альбом, soundtrack, поп-музыка, музыка, поп, pop-music, торрент, lossless, дискография, mp3, скачать, альбом, песни, torrent

01. Онова момче/Авантюра
02. Едно ми
03. Подлудяваш ме
04. Тежко ли ти е
05. Забрави ме
06. Само за теб
07. Празнуваш ли сега
08. Някой ден
09. Искай ме
10. Онова момче *
11. Някой ден *

--------------------------------------
*Мейкинг към клиповете (Создание видео)
Код:
General
Complete name : G:\DATEN\Azis\Azis - Azis - 2007\VIDEO_TS\VTS_02_1.VOB
Format : MPEG-PS
File size : 228 MiB
Duration : 4mn 4s
Overall bit rate : 7 839 Kbps
Video
ID : 224 (0xE0)
Format : MPEG Video
Format version : Version 2
Format profile : [email protected]
Format settings, BVOP : Yes
Format settings, Matrix : Default
Duration : 4mn 4s
Bit rate mode : Constant
Bit rate : 7 304 Kbps
Nominal bit rate : 7 500 Kbps
Width : 720 pixels
Height : 576 pixels
Display aspect ratio : 4:3
Frame rate : 25.000 fps
Standard : PAL
Resolution : 8 bits
Colorimetry : 4:2:0
Scan type : Interlaced
Scan order : Top Field First
Bits/(Pixel*Frame) : 0.704
Stream size : 213 MiB (93%)
Audio
ID : 192 (0xC0)
Format : MPEG Audio
Format version : Version 1
Format profile : Layer 2
Duration : 4mn 4s
Bit rate mode : Constant
Bit rate : 224 Kbps
Channel(s) : 2 channels
Sampling rate : 48.0 KHz
Video delay : -80ms
Stream size : 6.52 MiB (3%)
Menu
General
Complete name : G:\DATEN\Azis\Azis - Azis - 2007\VIDEO_TS\VTS_03_1.VOB
Format : MPEG-PS
File size : 279 MiB
Duration : 4mn 58s
Overall bit rate : 7 840 Kbps
Video
ID : 224 (0xE0)
Format : MPEG Video
Format version : Version 2
Format profile : [email protected]
Format settings, BVOP : Yes
Format settings, Matrix : Default
Duration : 4mn 58s
Bit rate mode : Constant
Bit rate : 7 305 Kbps
Nominal bit rate : 7 500 Kbps
Width : 720 pixels
Height : 576 pixels
Display aspect ratio : 4:3
Frame rate : 25.000 fps
Standard : PAL
Resolution : 8 bits
Colorimetry : 4:2:0
Scan type : Interlaced
Scan order : Top Field First
Bits/(Pixel*Frame) : 0.705
Stream size : 260 MiB (93%)
Audio
ID : 192 (0xC0)
Format : MPEG Audio
Format version : Version 1
Format profile : Layer 2
Duration : 4mn 58s
Bit rate mode : Constant
Bit rate : 224 Kbps
Channel(s) : 2 channels
Sampling rate : 48.0 KHz
Video delay : -80ms
Stream size : 7.96 MiB (3%)
Menu
General
Complete name : G:\DATEN\Azis\Azis - Azis - 2007\VIDEO_TS\VTS_04_1.VOB
Format : MPEG-PS
File size : 214 MiB
Duration : 3mn 34s
Overall bit rate : 8 380 Kbps
Video
ID : 224 (0xE0)
Format : MPEG Video
Format version : Version 2
Format profile : [email protected]
Format settings, BVOP : Yes
Format settings, Matrix : Default
Duration : 3mn 34s
Bit rate mode : Constant
Bit rate : 7 792 Kbps
Nominal bit rate : 8 000 Kbps
Width : 720 pixels
Height : 576 pixels
Display aspect ratio : 4:3
Frame rate : 25.000 fps
Standard : PAL
Resolution : 8 bits
Colorimetry : 4:2:0
Scan type : Progressive
Scan order : Bottom Field First
Bits/(Pixel*Frame) : 0.751
Stream size : 199 MiB (93%)
Audio
ID : 192 (0xC0)
Format : MPEG Audio
Format version : Version 1
Format profile : Layer 2
Duration : 3mn 34s
Bit rate mode : Constant
Bit rate : 256 Kbps
Channel(s) : 2 channels
Sampling rate : 48.0 KHz
Stream size : 6.53 MiB (3%)
Menu
General
Complete name : G:\DATEN\Azis\Azis - Azis - 2007\VIDEO_TS\VTS_05_1.VOB
Format : MPEG-PS
File size : 244 MiB
Duration : 4mn 4s
Overall bit rate : 8 381 Kbps
Video
ID : 224 (0xE0)
Format : MPEG Video
Format version : Version 2
Format profile : [email protected]
Format settings, BVOP : Yes
Format settings, Matrix : Default
Duration : 4mn 4s
Bit rate mode : Constant
Bit rate : 7 792 Kbps
Nominal bit rate : 8 000 Kbps
Width : 720 pixels
Height : 576 pixels
Display aspect ratio : 4:3
Frame rate : 25.000 fps
Standard : PAL
Resolution : 8 bits
Colorimetry : 4:2:0
Scan type : Progressive
Bits/(Pixel*Frame) : 0.752
Stream size : 227 MiB (93%)
Audio
ID : 192 (0xC0)
Format : MPEG Audio
Format version : Version 1
Format profile : Layer 2
Duration : 4mn 4s
Bit rate mode : Constant
Bit rate : 256 Kbps
Channel(s) : 2 channels
Sampling rate : 48.0 KHz
Stream size : 7.45 MiB (3%)
Menu
General
Complete name : G:\DATEN\Azis\Azis - Azis - 2007\VIDEO_TS\VTS_06_1.VOB
Format : MPEG-PS
File size : 202 MiB
Duration : 4mn 27s
Overall bit rate : 6 331 Kbps
Video
ID : 224 (0xE0)
Format : MPEG Video
Format version : Version 2
Format profile : [email protected]
Format settings, BVOP : Yes
Format settings, Matrix : Default
Duration : 4mn 27s
Bit rate mode : Constant
Bit rate : 5 856 Kbps
Nominal bit rate : 6 000 Kbps
Width : 720 pixels
Height : 576 pixels
Display aspect ratio : 4:3
Frame rate : 25.000 fps
Standard : PAL
Resolution : 8 bits
Colorimetry : 4:2:0
Scan type : Interlaced
Scan order : Bottom Field First
Bits/(Pixel*Frame) : 0.565
Stream size : 186 MiB (92%)
Audio
ID : 192 (0xC0)
Format : MPEG Audio
Format version : Version 1
Format profile : Layer 2
Duration : 4mn 26s
Bit rate mode : Constant
Bit rate : 224 Kbps
Channel(s) : 2 channels
Sampling rate : 48.0 KHz
Stream size : 7.13 MiB (4%)
Menu
General
Complete name : G:\DATEN\Azis\Azis - Azis - 2007\VIDEO_TS\VTS_07_1.VOB
Format : MPEG-PS
File size : 206 MiB
Duration : 4mn 33s
Overall bit rate : 6 335 Kbps
Video
ID : 224 (0xE0)
Format : MPEG Video
Format version : Version 2
Format profile : [email protected]
Format settings, BVOP : Yes
Format settings, Matrix : Default
Duration : 4mn 33s
Bit rate mode : Constant
Bit rate : 5 860 Kbps
Nominal bit rate : 6 000 Kbps
Width : 720 pixels
Height : 576 pixels
Display aspect ratio : 4:3
Frame rate : 25.000 fps
Standard : PAL
Resolution : 8 bits
Colorimetry : 4:2:0
Scan type : Interlaced
Scan order : Bottom Field First
Bits/(Pixel*Frame) : 0.565
Stream size : 191 MiB (92%)
Audio
ID : 192 (0xC0)
Format : MPEG Audio
Format version : Version 1
Format profile : Layer 2
Duration : 4mn 32s
Bit rate mode : Constant
Bit rate : 224 Kbps
Channel(s) : 2 channels
Sampling rate : 48.0 KHz
Stream size : 7.29 MiB (4%)
Menu
General
Complete name : G:\DATEN\Azis\Azis - Azis - 2007\VIDEO_TS\VTS_08_1.VOB
Format : MPEG-PS
File size : 257 MiB
Duration : 4mn 24s
Overall bit rate : 8 149 Kbps
Video
ID : 224 (0xE0)
Format : MPEG Video
Format version : Version 2
Format profile : [email protected]
Format settings, BVOP : Yes
Format settings, Matrix : Default
Duration : 4mn 24s
Bit rate mode : Constant
Bit rate : 7 601 Kbps
Nominal bit rate : 7 800 Kbps
Width : 720 pixels
Height : 576 pixels
Display aspect ratio : 4:3
Frame rate : 25.000 fps
Standard : PAL
Resolution : 8 bits
Colorimetry : 4:2:0
Scan type : Interlaced
Scan order : Bottom Field First
Bits/(Pixel*Frame) : 0.733
Stream size : 239 MiB (93%)
Audio
ID : 192 (0xC0)
Format : MPEG Audio
Format version : Version 1
Format profile : Layer 2
Duration : 4mn 24s
Bit rate mode : Constant
Bit rate : 224 Kbps
Channel(s) : 2 channels
Sampling rate : 48.0 KHz
Stream size : 7.05 MiB (3%)
Menu
General
Complete name : G:\DATEN\Azis\Azis - Azis - 2007\VIDEO_TS\VTS_09_1.VOB
Format : MPEG-PS
File size : 194 MiB
Duration : 4mn 17s
Overall bit rate : 6 332 Kbps
Video
ID : 224 (0xE0)
Format : MPEG Video
Format version : Version 2
Format profile : [email protected]
Format settings, BVOP : Yes
Format settings, Matrix : Default
Duration : 4mn 17s
Bit rate mode : Constant
Bit rate : 5 857 Kbps
Nominal bit rate : 6 000 Kbps
Width : 720 pixels
Height : 576 pixels
Display aspect ratio : 4:3
Frame rate : 25.000 fps
Standard : PAL
Resolution : 8 bits
Colorimetry : 4:2:0
Scan type : Interlaced
Scan order : Bottom Field First
Bits/(Pixel*Frame) : 0.565
Stream size : 180 MiB (92%)
Audio
ID : 192 (0xC0)
Format : MPEG Audio
Format version : Version 1
Format profile : Layer 2
Duration : 4mn 17s
Bit rate mode : Constant
Bit rate : 224 Kbps
Channel(s) : 2 channels
Sampling rate : 48.0 KHz
Stream size : 6.87 MiB (4%)
Menu
General
Complete name : G:\DATEN\Azis\Azis - Azis - 2007\VIDEO_TS\VTS_10_1.VOB
Format : MPEG-PS
File size : 167 MiB
Duration : 3mn 11s
Overall bit rate : 7 345 Kbps
Video
ID : 224 (0xE0)
Format : MPEG Video
Format version : Version 2
Format profile : [email protected]
Format settings, BVOP : Yes
Format settings, Matrix : Default
Duration : 3mn 11s
Bit rate mode : Constant
Bit rate : 6 829 Kbps
Nominal bit rate : 7 000 Kbps
Width : 720 pixels
Height : 576 pixels
Display aspect ratio : 4:3
Frame rate : 25.000 fps
Standard : PAL
Resolution : 8 bits
Colorimetry : 4:2:0
Scan type : Progressive
Bits/(Pixel*Frame) : 0.659
Stream size : 156 MiB (93%)
Audio
ID : 192 (0xC0)
Format : MPEG Audio
Format version : Version 1
Format profile : Layer 2
Duration : 3mn 11s
Bit rate mode : Constant
Bit rate : 224 Kbps
Channel(s) : 2 channels
Sampling rate : 48.0 KHz
Stream size : 5.10 MiB (3%)
Menu
General
Complete name : G:\DATEN\Azis\Azis - Azis - 2007\VIDEO_TS\VTS_11_1.VOB
Format : MPEG-PS
File size : 351 MiB
Duration : 7mn 44s
Overall bit rate : 6 336 Kbps
Video
ID : 224 (0xE0)
Format : MPEG Video
Format version : Version 2
Format profile : [email protected]
Format settings, BVOP : Yes
Format settings, Matrix : Default
Duration : 7mn 44s
Bit rate mode : Constant
Bit rate : 5 860 Kbps
Nominal bit rate : 6 000 Kbps
Width : 720 pixels
Height : 576 pixels
Display aspect ratio : 4:3
Frame rate : 25.000 fps
Standard : PAL
Resolution : 8 bits
Colorimetry : 4:2:0
Scan type : Interlaced
Scan order : Top Field First
Bits/(Pixel*Frame) : 0.565
Stream size : 325 MiB (92%)
Audio
ID : 192 (0xC0)
Format : MPEG Audio
Format version : Version 1
Format profile : Layer 2
Duration : 7mn 44s
Bit rate mode : Constant
Bit rate : 224 Kbps
Channel(s) : 2 channels
Sampling rate : 48.0 KHz
Stream size : 12.4 MiB (4%)
Menu
General
Complete name : G:\DATEN\Azis\Azis - Azis - 2007\VIDEO_TS\VTS_12_1.VOB
Format : MPEG-PS
File size : 460 MiB
Duration : 10mn 8s
Overall bit rate : 6 336 Kbps
Video
ID : 224 (0xE0)
Format : MPEG Video
Format version : Version 2
Format profile : [email protected]
Format settings, BVOP : Yes
Format settings, Matrix : Default
Duration : 10mn 8s
Bit rate mode : Constant
Bit rate : 5 861 Kbps
Nominal bit rate : 6 000 Kbps
Width : 720 pixels
Height : 576 pixels
Display aspect ratio : 4:3
Frame rate : 25.000 fps
Standard : PAL
Resolution : 8 bits
Colorimetry : 4:2:0
Scan type : Interlaced
Scan order : Bottom Field First
Bits/(Pixel*Frame) : 0.565
Stream size : 425 MiB (92%)
Audio
ID : 192 (0xC0)
Format : MPEG Audio
Format version : Version 1
Format profile : Layer 2
Duration : 10mn 8s
Bit rate mode : Constant
Bit rate : 224 Kbps
Channel(s) : 2 channels
Sampling rate : 48.0 KHz
Stream size : 16.3 MiB (4%)
Menu
General
Complete name : G:\DATEN\Azis\Azis - Azis - 2007\VIDEO_TS\VTS_01_0.VOB
Format : MPEG-PS
File size : 39.7 MiB
Duration : 30s 240ms
Overall bit rate : 11.0 Mbps
Video
ID : 224 (0xE0)
Format : MPEG Video
Format version : Version 2
Format profile : [email protected]
Format settings, BVOP : Yes
Format settings, Matrix : Default
Duration : 30s 240ms
Bit rate mode : Variable
Bit rate : 10.4 Mbps
Width : 720 pixels
Height : 576 pixels
Display aspect ratio : 4:3
Frame rate : 25.000 fps
Standard : PAL
Resolution : 8 bits
Colorimetry : 4:2:0
Bits/(Pixel*Frame) : 1.001
Stream size : 37.4 MiB (94%)
Audio
ID : 128 (0x80)
Format : AC-3
Format/Info : Audio Coding 3
Duration : 30s 144ms
Bit rate mode : Constant
Bit rate : 192 Kbps
Channel(s) : 2 channels
Channel positions : L R
Sampling rate : 48.0 KHz
Stream size : 707 KiB (2%)
Text
ID : 32 (0x20)
Format : RLE
Format/Info : Run-length encoding
Video delay : 20ms
Menu
General
Complete name : G:\DATEN\Azis\Azis - Azis - 2007\VIDEO_TS\VTS_01_1.VOB
Format : MPEG-PS
File size : 17.4 MiB
Duration : 23s 960ms
Overall bit rate : 6 080 Kbps
Video
ID : 224 (0xE0)
Format : MPEG Video
Format version : Version 2
Format profile : [email protected]
Format settings, BVOP : Yes
Format settings, Matrix : Default
Duration : 23s 960ms
Bit rate mode : Variable
Bit rate : 5 615 Kbps
Nominal bit rate : 9 100 Kbps
Width : 720 pixels
Height : 576 pixels
Display aspect ratio : 4:3
Frame rate : 25.000 fps
Standard : PAL
Resolution : 8 bits
Colorimetry : 4:2:0
Scan type : Interlaced
Scan order : Bottom Field First
Bits/(Pixel*Frame) : 0.542
Stream size : 16.0 MiB (92%)
Audio
ID : 192 (0xC0)
Format : MPEG Audio
Format version : Version 1
Format profile : Layer 2
Duration : 23s 904ms
Bit rate mode : Constant
Bit rate : 224 Kbps
Channel(s) : 2 channels
Sampling rate : 48.0 KHz
Stream size : 654 KiB (4%)
Menu

[2.79 GB] Скачать / Download