Bad Boys Blue - Bad Boys Best ( 1991, Pop, DVD5) - Скачать

Жанр: Pop
Производитель VHS HiFi: Germany
BMG Ariola 790-522, 1991
Аудио:
LPCM-stereo 24/96 4608 Kbps
Формат раздачи: ADVD, PAL, 4:3
Продолжительность: 0:48:00
Информация об источнике: Собственный рип
Описание:
Очередной релиз ADVD из серии "Special Audio Video Remix".
Звук и видео взяты с коллекционной VHS HiFi (PAL, BMG-Ariola 790-522, 1991, Germany), для воспроизведения использовался профи-аппарат JVC SR-VS20, далее оцифровка на внешку SB-X-Fi Surround 5.1 (SB 1090) в режиме записи стерео 96kHz/24bit. В SoundForge-10 только обрезка "хвостиков" и нормализация под -1дб и без шумоподавления. Видео немного подработано (шумы, контраст и т.д.) и сделано здесь не в "полном экране". Редактирование и синхронизация звука-видео в Sony-Vegas-9.0, видео просчитано с VBR 4.0-4.5-5.0 с верхним полем в 2 прохода (чтобы не выскочить за лимит битрейта 9,8 и вписаться в DVD-5). Сборка на ДВД в Sony-DVDArchitect-5.0, обязательное меню с выбором треков.
Тех.данные приводятся с Media-Info, причём эта программа не в состоянии определить HD-звук, поэтому дополнительно приведена правильная информация с WinDVD.

soundtrack, альбом, torrent, торрент, альбом, высокое качество, скачать, поп-музыка, download, pop-music, pop, композиции, песни, дискография, музыка, lossless, mp3, бесплатно, cd, поп, трек

01. You're A Woman
02. Pretty Young Girl
03. Love Really Hurts Without You
04. I Wanna Hear Your Heartbeat (Sunday Girl)
05. Kisses And Tears (My One and Only)
06. Come Back And Stay
07. Don't Walk Away Suzanne
08. Lovers In The Sand
09. A World Without You (Michelle)
10. Hungry For Love
11. A Train To Nowhere
12. How I Need You
13. Queen Of Hearts
Устройство воспроизведения:
audio/video - JVC SR-VS20,
АЦП: SB-X-Fi surround 5.1 (SB 1090)
Программы-оцифровщики: Sound Forge 10 & Matrox RT.X2
Обработка видео: CS4 c NoiseReduction, After Effect CS5
Обработка звука: Sound Forge 10
Редактирование: Sony-Vegas 9.0
Авторинг: Sony-DVDArchitect 5.0
Формат записи: stereo 24bit/96kHz
Формат раздачи: LPCM-stereo 24bit/96kHz
General
Complete name : J:\Torrent\BadBoysBlue_JBA_9624\VIDEO_TS\VTS_01_1.VOB
Format : MPEG-PS
File size : 1 000 MiB
Duration : 14mn 55s
Overall bit rate : 9 370 Kbps
Video
ID : 224 (0xE0)
Format : MPEG Video
Format version : Version 2
Format profile : [email protected]
Format settings, Matrix : Default
Duration : 14mn 55s
Bit rate mode : Variable
Bit rate : 7 974 Kbps
Nominal bit rate : 5 000 Kbps
Width : 720 pixels
Height : 576 pixels
Display aspect ratio : 4:3
Frame rate : 25.000 fps
Standard : PAL
Colorimetry : 4:2:0
Scan type : Interlaced
Scan order : Bottom Field First
Bits/(Pixel*Frame) : 0.769
Stream size : 851 MiB (85%)
Audio
ID : 160 (0xA0)
Format : PCM
Format settings, Endianness : Big
Format settings, Sign : Signed
Muxing mode : DVD-Video
Duration : 14mn 54s
Bit rate mode : Constant
Bit rate : 1 024 Kbps
Channel(s) : 2 channels
Channel positions : Front: L R
Sampling rate : 32.0 KHz
Resolution : 16 bits
Stream size : 109 MiB (11%)
Version:
7.0 B27.066
Navigation:
Type: DVD
Region: 6
Drive: J:\Torrent\BadBoysBlue_JBA_9624
TV System: PAL.
Video:
Hardware:
Vendor: ATI
Stream:
Type: Interlaced MPEG2
Bitrate: 5.000 Mbps
Framerate: 25.000 Hz
Resolution: 720x576
Aspect ratio: 4x3
Audio:
Hardware:
Audio Device: directsound
S/PDIF: None
Number of speakers: 8
Stream:
Type: Linear PCM
Bitrate: 4608 Kbps
Number of main channels: 2
LFE Channel: None
Sampling Frequency: 96khz
Bits Per Sample: 24

[3.23 GB] Скачать / Download