(Disco) Boney M. - The Magic Of Boney M. - 2006, FLAC (tracks+.cue), lossless - Скачать

Boney M. - The Magic Of Boney M.

Жанр: Disco
Носитель: CD
Страна-производитель диска (релиза): Germany
Год издания: 2006
Издатель (лейбл): Sony Music
Номер по каталогу: 82876 89304 2
Аудиокодек: FLAC (*.flac)
Тип рипа: tracks+.cue
Битрейт аудио: lossless
Продолжительность: 01:14:24
Источник (релизер): Собственный диск
Наличие сканов в содержимом раздачи: да
Треклист:

01. Rivers Of Babylon
02. Brown Girl In The Ring
03. Daddy Cool
04. Sunny
05. Mary's Boy Child / Oh My Lord
06. Rasputin
07. El Lute
08. Hooray! Hooray! It's A Holi-Holiday
09. No Woman No Cry
10. Painter Man
11. Belfast
12. Kalimba De Luna
13. Happy Song
14. Still I'm Sad
15. Baby Do You Wanna Bump
16. Felicidad
17. Gotta Go Home
18. Ma Baker
Bonus:
19. Sunny (Mousse-T Remix)
20. A Moment Of Love

https://www.discogs.com/Boney-M-The-Magic-Of-Boney-M/release/1321065

альбом, трек, высокое качество, soundtrack, torrent, торрент, download, скачать, cd, pop-music, mp3, бесплатно, поп-музыка, дискография, поп, музыка, pop, композиции, альбом, lossless, песни

 Exact Audio Copy V0.99 prebeta 5 from 4. May 2009
EAC extraction logfile from 7. March 2012, 15:59
Boney M / The Magic Of Boney M
Used drive : PIONEER DVD-RW DVR-K17A Adapter: 1 ID: 0
Read mode : Secure
Utilize accurate stream : Yes
Defeat audio cache : Yes
Make use of C2 pointers : No
Read offset correction : 48
Overread into Lead-In and Lead-Out : No
Fill up missing offset samples with silence : Yes
Delete leading and trailing silent blocks : No
Null samples used in CRC calculations : Yes
Used interface : Native Win32 interface for Win NT & 2000
Gap handling : Appended to previous track
Used output format : User Defined Encoder
Selected bitrate : 128 kBit/s
Quality : High
Add ID3 tag : No
Command line compressor : C:\Program Files\Exact Audio Copy\Flac\flac.exe
Additional command line options : -V -8 -T "artist=%a" -T "title=%t" -T "album=%g" -T "date=%y" -T "tracknumber=%n" -T "genre=%m" %s
TOC of the extracted CD
Track | Start | Length | Start sector | End sector
---------------------------------------------------------
1 | 0:00.00 | 4:16.49 | 0 | 19248
2 | 4:16.49 | 4:01.53 | 19249 | 37376
3 | 8:18.27 | 3:27.12 | 37377 | 52913
4 | 11:45.39 | 3:58.01 | 52914 | 70764
5 | 15:43.40 | 4:02.66 | 70765 | 88980
6 | 19:46.31 | 4:26.27 | 88981 | 108957
7 | 24:12.58 | 3:59.66 | 108958 | 126948
8 | 28:12.49 | 3:55.43 | 126949 | 144616
9 | 32:08.17 | 4:18.47 | 144617 | 164013
10 | 36:26.64 | 3:17.40 | 164014 | 178828
11 | 39:44.29 | 3:28.38 | 178829 | 194466
12 | 43:12.67 | 4:13.23 | 194467 | 213464
13 | 47:26.15 | 3:58.42 | 213465 | 231356
14 | 51:24.57 | 4:25.73 | 231357 | 251304
15 | 55:50.55 | 2:27.66 | 251305 | 262395
16 | 58:18.46 | 2:52.36 | 262396 | 275331
17 | 61:11.07 | 2:33.08 | 275332 | 286814
18 | 63:44.15 | 4:06.50 | 286815 | 305314
19 | 67:50.65 | 3:20.29 | 305315 | 320343
20 | 71:11.19 | 3:13.31 | 320344 | 334849
Track 1
Filename D:\EAC RIPS\Boney M - 2006 - The Magic Of Boney M\01 - Rivers Of Babylon.wav
Pre-gap length 0:00:02.00
Peak level 99.0 %
Track quality 100.0 %
Test CRC 7ADEBD24
Copy CRC 7ADEBD24
Accurately ripped (confidence 16) [7E62B358]
Copy OK
Track 2
Filename D:\EAC RIPS\Boney M - 2006 - The Magic Of Boney M\02 - Brown Girl In The Ring.wav
Peak level 99.0 %
Track quality 100.0 %
Test CRC F29A01E6
Copy CRC F29A01E6
Accurately ripped (confidence 14) [82AC1C11]
Copy OK
Track 3
Filename D:\EAC RIPS\Boney M - 2006 - The Magic Of Boney M\03 - Daddy Cool.wav
Pre-gap length 0:00:00.76
Peak level 99.2 %
Track quality 100.0 %
Test CRC 348D5B74
Copy CRC 348D5B74
Accurately ripped (confidence 14) [76DC2FD4]
Copy OK
Track 4
Filename D:\EAC RIPS\Boney M - 2006 - The Magic Of Boney M\04 - Sunny.wav
Peak level 99.0 %
Track quality 100.0 %
Test CRC E274D5ED
Copy CRC E274D5ED
Accurately ripped (confidence 14) [E03361DC]
Copy OK
Track 5
Filename D:\EAC RIPS\Boney M - 2006 - The Magic Of Boney M\05 - Mary's Boy Child , Oh My Lord.wav
Pre-gap length 0:00:00.21
Peak level 99.7 %
Track quality 100.0 %
Test CRC B2A5A82F
Copy CRC B2A5A82F
Accurately ripped (confidence 15) [4F4B3513]
Copy OK
Track 6
Filename D:\EAC RIPS\Boney M - 2006 - The Magic Of Boney M\06 - Rasputin.wav
Pre-gap length 0:00:00.80
Peak level 99.0 %
Track quality 100.0 %
Test CRC 2E3657A6
Copy CRC 2E3657A6
Accurately ripped (confidence 14) [E8606AE6]
Copy OK
Track 7
Filename D:\EAC RIPS\Boney M - 2006 - The Magic Of Boney M\07 - El Lute.wav
Pre-gap length 0:00:00.20
Peak level 99.0 %
Track quality 100.0 %
Test CRC CA4FA660
Copy CRC CA4FA660
Accurately ripped (confidence 13) [B03213F2]
Copy OK
Track 8
Filename D:\EAC RIPS\Boney M - 2006 - The Magic Of Boney M\08 - Hooray! Hooray! It's A Holi-Holiday.wav
Pre-gap length 0:00:00.89
Peak level 99.8 %
Track quality 100.0 %
Test CRC 27DE0B58
Copy CRC 27DE0B58
Accurately ripped (confidence 14) [659C7DEA]
Copy OK
Track 9
Filename D:\EAC RIPS\Boney M - 2006 - The Magic Of Boney M\09 - No Woman No Cry.wav
Peak level 99.0 %
Track quality 100.0 %
Test CRC 12850E58
Copy CRC 12850E58
Accurately ripped (confidence 13) [239E313E]
Copy OK
Track 10
Filename D:\EAC RIPS\Boney M - 2006 - The Magic Of Boney M\10 - Painter Man.wav
Pre-gap length 0:00:00.42
Peak level 99.0 %
Track quality 100.0 %
Test CRC 2BB9196F
Copy CRC 2BB9196F
Accurately ripped (confidence 14) [F3DA9144]
Copy OK
Track 11
Filename D:\EAC RIPS\Boney M - 2006 - The Magic Of Boney M\11 - Belfast.wav
Pre-gap length 0:00:00.25
Peak level 99.0 %
Track quality 100.0 %
Test CRC 09006F1B
Copy CRC 09006F1B
Accurately ripped (confidence 14) [71C3314D]
Copy OK
Track 12
Filename D:\EAC RIPS\Boney M - 2006 - The Magic Of Boney M\12 - Kalimba De Luna.wav
Pre-gap length 0:00:00.74
Peak level 99.1 %
Track quality 100.0 %
Test CRC 1159C093
Copy CRC 1159C093
Accurately ripped (confidence 14) [2B4498A1]
Copy OK
Track 13
Filename D:\EAC RIPS\Boney M - 2006 - The Magic Of Boney M\13 - Happy Song.wav
Peak level 99.1 %
Track quality 100.0 %
Test CRC AED2793F
Copy CRC AED2793F
Accurately ripped (confidence 14) [D3C2DE07]
Copy OK
Track 14
Filename D:\EAC RIPS\Boney M - 2006 - The Magic Of Boney M\14 - Still I'm Sad.wav
Pre-gap length 0:00:00.17
Peak level 99.0 %
Track quality 99.9 %
Test CRC 40EF9518
Copy CRC 40EF9518
Accurately ripped (confidence 13) [5BC7FDF1]
Copy OK
Track 15
Filename D:\EAC RIPS\Boney M - 2006 - The Magic Of Boney M\15 - Baby Do You Wanna Bump.wav
Pre-gap length 0:00:00.84
Peak level 99.0 %
Track quality 100.0 %
Test CRC 3FA1919E
Copy CRC 3FA1919E
Accurately ripped (confidence 13) [5D73740B]
Copy OK
Track 16
Filename D:\EAC RIPS\Boney M - 2006 - The Magic Of Boney M\16 - Felicidad.wav
Pre-gap length 0:00:00.41
Peak level 99.0 %
Track quality 100.0 %
Test CRC 42255F62
Copy CRC 42255F62
Accurately ripped (confidence 13) [1F3F4A3A]
Copy OK
Track 17
Filename D:\EAC RIPS\Boney M - 2006 - The Magic Of Boney M\17 - Gotta Go Home.wav
Pre-gap length 0:00:00.77
Peak level 99.0 %
Track quality 99.9 %
Test CRC 81F81422
Copy CRC 81F81422
Accurately ripped (confidence 14) [543E1018]
Copy OK
Track 18
Filename D:\EAC RIPS\Boney M - 2006 - The Magic Of Boney M\18 - Ma Baker.wav
Pre-gap length 0:00:00.24
Peak level 99.0 %
Track quality 100.0 %
Test CRC 4CD7953B
Copy CRC 4CD7953B
Accurately ripped (confidence 14) [77410CC2]
Copy OK
Track 19
Filename D:\EAC RIPS\Boney M - 2006 - The Magic Of Boney M\19 - Sunny (Mousse-T Remix).wav
Peak level 99.8 %
Track quality 100.0 %
Test CRC 94EB5081
Copy CRC 94EB5081
Accurately ripped (confidence 14) [06021D7B]
Copy OK
Track 20
Filename D:\EAC RIPS\Boney M - 2006 - The Magic Of Boney M\20 - A Moment Of Love.wav
Pre-gap length 0:00:00.14
Peak level 99.9 %
Track quality 100.0 %
Test CRC 869CF4D5
Copy CRC 869CF4D5
Accurately ripped (confidence 13) [D2658407]
Copy OK
All tracks accurately ripped
No errors occurred
End of status report
 REM GENRE Disco
REM DATE 2006
REM DISCID 31117014
REM COMMENT "ExactAudioCopy v0.99pb5"
FILE "01 - Rivers Of Babylon.wav" WAVE
TRACK 01 AUDIO
INDEX 01 00:00:00
FILE "02 - Brown Girl In The Ring.wav" WAVE
TRACK 02 AUDIO
INDEX 01 00:00:00
TRACK 03 AUDIO
INDEX 00 04:00:71
FILE "03 - Daddy Cool.wav" WAVE
INDEX 01 00:00:00
FILE "04 - Sunny.wav" WAVE
TRACK 04 AUDIO
INDEX 01 00:00:00
TRACK 05 AUDIO
INDEX 00 03:57:60
FILE "05 - Mary's Boy Child , Oh My Lord.wav" WAVE
INDEX 01 00:00:00
TRACK 06 AUDIO
INDEX 00 04:02:06
FILE "06 - Rasputin.wav" WAVE
INDEX 01 00:00:00
TRACK 07 AUDIO
INDEX 00 04:26:12
FILE "07 - El Lute.wav" WAVE
INDEX 01 00:00:00
TRACK 08 AUDIO
INDEX 00 03:58:74
FILE "08 - Hooray! Hooray! It's A Holi-Holiday.wav" WAVE
INDEX 01 00:00:00
FILE "09 - No Woman No Cry.wav" WAVE
TRACK 09 AUDIO
INDEX 01 00:00:00
TRACK 10 AUDIO
INDEX 00 04:18:15
FILE "10 - Painter Man.wav" WAVE
INDEX 01 00:00:00
TRACK 11 AUDIO
INDEX 00 03:17:21
FILE "11 - Belfast.wav" WAVE
INDEX 01 00:00:00
TRACK 12 AUDIO
INDEX 00 03:27:57
FILE "12 - Kalimba De Luna.wav" WAVE
INDEX 01 00:00:00
FILE "13 - Happy Song.wav" WAVE
TRACK 13 AUDIO
INDEX 01 00:00:00
TRACK 14 AUDIO
INDEX 00 03:58:29
FILE "14 - Still I'm Sad.wav" WAVE
INDEX 01 00:00:00
TRACK 15 AUDIO
INDEX 00 04:25:10
FILE "15 - Baby Do You Wanna Bump.wav" WAVE
INDEX 01 00:00:00
TRACK 16 AUDIO
INDEX 00 02:27:35
FILE "16 - Felicidad.wav" WAVE
INDEX 01 00:00:00
TRACK 17 AUDIO
INDEX 00 02:51:53
FILE "17 - Gotta Go Home.wav" WAVE
INDEX 01 00:00:00
TRACK 18 AUDIO
INDEX 00 02:32:65
FILE "18 - Ma Baker.wav" WAVE
INDEX 01 00:00:00
FILE "19 - Sunny (Mousse-T Remix).wav" WAVE
TRACK 19 AUDIO
INDEX 01 00:00:00
TRACK 20 AUDIO
INDEX 00 03:20:18
FILE "20 - A Moment Of Love.wav" WAVE
INDEX 01 00:00:00
 -----------------------
DON'T MODIFY THIS FILE
-----------------------
PERFORMER: auCDtect Task Manager, ver. 1.6.0 RC1 build 1.6.0.1
Copyright (c) 2008-2010 y-soft. All rights reserved
http://y-soft.org
ANALYZER: auCDtect: CD records authenticity detector, version 0.8.2
Copyright (c) 2004 Oleg Berngardt. All rights reserved.
Copyright (c) 2004 Alexander Djourik. All rights reserved.
FILE: 20 - A Moment Of Love.flac
Size: 22654634 Hash: 557FF82D2788C043982FAC0A225C485E Accuracy: -m8
Conclusion: CDDA 100%
Signature: 29E2F9C4BB3085637D942736AE929FB22B79CFDE
FILE: 19 - Sunny (Mousse-T Remix).flac
Size: 24401133 Hash: 42E1C6B0079E73CA5311666B8FA7D72A Accuracy: -m8
Conclusion: CDDA 100%
Signature: A0906AE6AF3A1AC1ACFBA78B47DB7E8E70E891EE
FILE: 18 - Ma Baker.flac
Size: 30940263 Hash: 9FB9FCC5987AF017AD8CF8F86E46F7C7 Accuracy: -m8
Conclusion: CDDA 100%
Signature: D8E953FECCB15EA92E13587E455FADE80E586811
FILE: 17 - Gotta Go Home.flac
Size: 18928432 Hash: C6937045F90852F0604C1572B4865636 Accuracy: -m8
Conclusion: CDDA 100%
Signature: FFAC2A5DCB17612CCF8984D8289F9415CE1F2043
FILE: 16 - Felicidad.flac
Size: 20878776 Hash: D30392DCC946DE9080430616D526DE8D Accuracy: -m8
Conclusion: CDDA 99%
Signature: 0A19C576E5203DBBC44AB8251E9AA6B6D7AD0138
FILE: 15 - Baby Do You Wanna Bump.flac
Size: 19494537 Hash: FDC38A6BE5C8118C1BE6D4D9E75C0EB2 Accuracy: -m8
Conclusion: CDDA 99%
Signature: 8F1A1EDF11A40AF13E2BFA9764DAB5BFAA3CF1C4
FILE: 14 - Still I'm Sad.flac
Size: 30577502 Hash: E0DED273C1D0A81B0D04A7E19D63C46B Accuracy: -m8
Conclusion: CDDA 100%
Signature: 7FC7CFFD1674CA456739ADDB66A00026CB21EA5F
FILE: 13 - Happy Song.flac
Size: 29529051 Hash: 7A9154831A63A856FE0314F995985016 Accuracy: -m8
Conclusion: CDDA 100%
Signature: 15432A62A4DA09BA3C500E53C6C413BCD8F9D437
FILE: 12 - Kalimba De Luna.flac
Size: 30710227 Hash: C8E0F764990A3F3AC1565F30ABE133E0 Accuracy: -m8
Conclusion: CDDA 100%
Signature: C777B2A05481417D02E4209B9279103F2AF78D7A
FILE: 11 - Belfast.flac
Size: 25977930 Hash: 12F7B91FA2B525E5441238650815C72F Accuracy: -m8
Conclusion: CDDA 100%
Signature: 631473B11216D9F3922769491D77E86A789A0BC2
FILE: 10 - Painter Man.flac
Size: 25453245 Hash: EE70A5E57B64AFFD1B404F24DC4A7E44 Accuracy: -m8
Conclusion: CDDA 100%
Signature: 9E5C031D5FE17903835E89C15DB399B88558E9B1
FILE: 09 - No Woman No Cry.flac
Size: 30639732 Hash: 3B476A6BA765B6D39A1F710FCA362AF6 Accuracy: -m8
Conclusion: CDDA 100%
Signature: F7C459864F096AFFD55D08F549032F3DEE4C1B0F
FILE: 08 - Hooray! Hooray! It's A Holi-Holiday.flac
Size: 30082368 Hash: 90709A1B5E71FCC1EF2BB79E4577F29B Accuracy: -m8
Conclusion: CDDA 100%
Signature: 60B3525AF2AD7BB60804FDD1DDB63620F1A65B7F
FILE: 07 - El Lute.flac
Size: 28882554 Hash: 4FC0737BAF31439EA0F9A102F770D61D Accuracy: -m8
Conclusion: CDDA 100%
Signature: 1DE3AAA7ECC2EF7A72792E9B8C517180D875458E
FILE: 06 - Rasputin.flac
Size: 33943850 Hash: 29D803391B89EB7991EF0C8236E281B5 Accuracy: -m8
Conclusion: CDDA 100%
Signature: 6D57E0F0A1D29FCBC79C0262FA7F0747C08C8F41
FILE: 05 - Mary's Boy Child , Oh My Lord.flac
Size: 31011361 Hash: DA1D59D7F5AC2CA3497BD734A7904CB1 Accuracy: -m8
Conclusion: CDDA 100%
Signature: 514CC136702850B097BEBDFBCC1231D9A29B103C
FILE: 04 - Sunny.flac
Size: 29974095 Hash: CE271B9773AE5AFA39480EDEB43845FC Accuracy: -m8
Conclusion: CDDA 99%
Signature: 94F9A1415AB38DE8A6CF76EA8F36C9B3BF170E0E
FILE: 03 - Daddy Cool.flac
Size: 26205541 Hash: 16C0E5F77A091659779BF19F2A7CC785 Accuracy: -m8
Conclusion: CDDA 100%
Signature: 3AF910A11F122385C8DA141FFC8D3A7AF399C35C
FILE: 02 - Brown Girl In The Ring.flac
Size: 30545294 Hash: 12EF4DDDBDBC123AA0129A49FAB6F565 Accuracy: -m8
Conclusion: CDDA 100%
Signature: 983D1CEE08F33CF3F612CB7C2BC46EA08453D8C3
FILE: 01 - Rivers Of Babylon.flac
Size: 31576248 Hash: CAD59C72B89D092AC2455C5F46F57C54 Accuracy: -m8
Conclusion: CDDA 100%
Signature: 193F96A7FAA210FDDD5C09F37627D9C37F72724F

[527.9 MB] Скачать / Download