(Disco) VA - 80's Stop! (3 CD) - 2010, FLAC (image+.cue), lossless - Скачать

Жанр: Disco
Носитель: CD
Страна-производитель диска (релиза): Germany
Год издания: 2010
Издатель (лейбл):Sony Music Entertainment Germany GmbH.
Номер по каталогу:88697 77131 2
Аудиокодек: FLAC (*.flac)
Тип рипа: image+.cue
Битрейт аудио: lossless
Продолжительность:3:57:10
Источник (релизер): Собственный рип
Наличие сканов в содержимом раздачи: нет
Треклист:

pop, поп-музыка, скачать, cd, дискография, музыка, трек, высокое качество, альбом, mp3, альбом, download, поп, песни, бесплатно, soundtrack, torrent, lossless, торрент, композиции, pop-music

 ~ Продолжительность : 01:20:20
~ BitRate (min...max) : 959 kbps
01 SURVIVOR * Eye Of The Tiger (03:48)
02 JO BOXERS * Boxerbeat (03:03)
03 HAYSI FANTAYZEE * John Wayne Is Big Leggy (03:21)
04 BONNIE TYLER * Total Eclipse Of The Heart (04:29)
05 RICK SPRINGFIELD * Jessie's Girl (03:14)
06 JOHN FARNHAM * You're The Voice (05:01)
07 MR. MISTER * Kyrie (04:14)
08 HALL & OATES * Maneyter (04:31)
09 REO SPEEDWAGON * Keep On Loving You (03:20)
10 MEAT LOAF * Dead Ringer For Love (04:23)
11 EUROPE * Carrie (04:30)
12 CHEAP TRICK * The Flame (04:41)
13 ALICE COOPER * Poison (04:30)
14 TOTO * Africa (04:58)
15 MEN AT WORK * Who Can It Be Now (03:22)
16 KENNIE LOGGINS * Footloose (03:47)
17 THE BANGLES * Eternal Flame (03:56)
18 THE THOMPSON TWINS * You Take Me Up (04:07)
19 SHAKIN' STEVENS * This Ole House (03:04)
20 ALISON MOYET * Is This Love (04:01)
Содержание индексной карты (.CUE):
 REM GENRE Pop
REM DATE 2010
REM DISCID 2E12E014
REM COMMENT "ExactAudioCopy v1.3"
CATALOG 0886977713125
PERFORMER "Various Artists"
TITLE "80s Stop 1"
REM COMPOSER ""
FILE "Various Artists - 80s Stop 1.flac" WAVE
TRACK 01 AUDIO
TITLE "Eye Of The Tiger"
PERFORMER "Survivor"
REM COMPOSER ""
ISRC USVR10400292
INDEX 01 00:00:00
TRACK 02 AUDIO
TITLE "Boxerbeat"
PERFORMER "Jo Boxers"
REM COMPOSER ""
ISRC GBARL8300052
INDEX 00 03:47:63
INDEX 01 03:48:63
TRACK 03 AUDIO
TITLE "John Wayne Is Big Leggy"
PERFORMER "Haysi Fantayzee"
REM COMPOSER ""
ISRC USRC18208050
INDEX 00 06:51:36
INDEX 01 06:52:36
TRACK 04 AUDIO
TITLE "Total Eclipse Of The Heart"
PERFORMER "Bonnie Tyler"
REM COMPOSER ""
ISRC GBBBN8300002
INDEX 00 10:12:64
INDEX 01 10:13:64
TRACK 05 AUDIO
TITLE "Jessie's Girl"
PERFORMER "Rick Springfield"
REM COMPOSER ""
ISRC USRC18108188
INDEX 00 14:42:13
INDEX 01 14:43:13
TRACK 06 AUDIO
TITLE "You're The Voice"
PERFORMER "John Farnham"
REM COMPOSER ""
ISRC AUBM08641001
INDEX 00 17:56:72
INDEX 01 17:57:72
TRACK 07 AUDIO
TITLE "Kyrie"
PERFORMER "Mr. Mister"
REM COMPOSER ""
ISRC USRC10100412
INDEX 00 22:58:49
INDEX 01 22:59:49
TRACK 08 AUDIO
TITLE "Maneyter"
PERFORMER "Hall & Oates"
REM COMPOSER ""
ISRC USRC10400906
INDEX 00 27:13:40
INDEX 01 27:14:40
TRACK 09 AUDIO
TITLE "Keep On Loving You"
PERFORMER "REO Speedwagon"
REM COMPOSER ""
ISRC USSM18800133
INDEX 00 31:45:36
INDEX 01 31:46:36
TRACK 10 AUDIO
TITLE "Dead Ringer For Love"
PERFORMER "Meat Loaf"
REM COMPOSER ""
ISRC USSM18100032
INDEX 00 35:06:02
INDEX 01 35:07:02
TRACK 11 AUDIO
TITLE "Carrie"
PERFORMER "Europe"
REM COMPOSER ""
ISRC USSM18600197
INDEX 00 39:29:10
INDEX 01 39:30:10
TRACK 12 AUDIO
TITLE "The Flame"
PERFORMER "Cheap Trick"
REM COMPOSER ""
ISRC USSM18700296
INDEX 00 44:00:05
INDEX 01 44:01:05
TRACK 13 AUDIO
TITLE "Poison"
PERFORMER "Alice Cooper"
REM COMPOSER ""
ISRC USSM18900004
INDEX 00 48:41:11
INDEX 01 48:42:11
TRACK 14 AUDIO
TITLE "Africa"
PERFORMER "Toto"
REM COMPOSER ""
ISRC USSM18200463
INDEX 00 53:11:33
INDEX 01 53:12:33
TRACK 15 AUDIO
TITLE "Who Can It Be Now"
PERFORMER "Men At Work"
REM COMPOSER ""
ISRC USSM18100057
INDEX 00 58:10:12
INDEX 01 58:11:12
TRACK 16 AUDIO
TITLE "Footloose"
PERFORMER "Kennie Loggins"
REM COMPOSER ""
ISRC USSM18400522
INDEX 00 61:32:61
INDEX 01 61:33:61
TRACK 17 AUDIO
TITLE "Eternal Flame"
PERFORMER "The Bangles"
REM COMPOSER ""
ISRC USSM18700216
INDEX 00 65:20:08
INDEX 01 65:21:08
TRACK 18 AUDIO
TITLE "You Take Me Up"
PERFORMER "The Thompson Twins"
REM COMPOSER ""
ISRC GBARK8300014
INDEX 00 69:16:71
INDEX 01 69:17:71
TRACK 19 AUDIO
TITLE "This Ole House"
PERFORMER "Shakin' Stevens"
REM COMPOSER ""
ISRC GBBBM0400154
INDEX 00 73:24:68
INDEX 01 73:25:68
TRACK 20 AUDIO
TITLE "Is This Love"
PERFORMER "Alison Moyet"
REM COMPOSER ""
ISRC GBBBN8602032
INDEX 00 76:29:60
INDEX 01 76:30:60
Отчёт EAC:
 Exact Audio Copy V1.3 from 2. September 2016
EAC extraction logfile from 8. June 2018, 16:31
Various Artists / 80s Stop 1
Used drive : ASUS DRW-24F1ST a Adapter: 1 ID: 1
Read mode : Secure
Utilize accurate stream : Yes
Defeat audio cache : Yes
Make use of C2 pointers : No
Read offset correction : 6
Overread into Lead-In and Lead-Out : No
Fill up missing offset samples with silence : Yes
Delete leading and trailing silent blocks : No
Null samples used in CRC calculations : Yes
Used interface : Native Win32 interface for Win NT & 2000
Used output format : User Defined Encoder
Selected bitrate : 128 kBit/s
Quality : High
Add ID3 tag : No
Command line compressor : C:\Program Files (x86)\Exact Audio Copy\Flac\flac.exe
Additional command line options : -V -8 -T "Genre=%genre%" -T "Artist=%artist%" -T "Title=%title%" -T "Album=%albumtitle%" -T "Date=%year%" -T "Tracknumber=%tracknr%" -T "Comment=%comment%" %source%
TOC of the extracted CD
Track | Start | Length | Start sector | End sector
---------------------------------------------------------
1 | 0:00.00 | 3:48.63 | 0 | 17162
2 | 3:48.63 | 3:03.48 | 17163 | 30935
3 | 6:52.36 | 3:21.28 | 30936 | 46038
4 | 10:13.64 | 4:29.24 | 46039 | 66237
5 | 14:43.13 | 3:14.59 | 66238 | 80846
6 | 17:57.72 | 5:01.52 | 80847 | 103473
7 | 22:59.49 | 4:14.66 | 103474 | 122589
8 | 27:14.40 | 4:31.71 | 122590 | 142985
9 | 31:46.36 | 3:20.41 | 142986 | 158026
10 | 35:07.02 | 4:23.08 | 158027 | 177759
11 | 39:30.10 | 4:30.70 | 177760 | 198079
12 | 44:01.05 | 4:41.06 | 198080 | 219160
13 | 48:42.11 | 4:30.22 | 219161 | 239432
14 | 53:12.33 | 4:58.54 | 239433 | 261836
15 | 58:11.12 | 3:22.49 | 261837 | 277035
16 | 61:33.61 | 3:47.22 | 277036 | 294082
17 | 65:21.08 | 3:56.63 | 294083 | 311845
18 | 69:17.71 | 4:07.72 | 311846 | 330442
19 | 73:25.68 | 3:04.67 | 330443 | 344309
20 | 76:30.60 | 4:01.46 | 344310 | 362430
Range status and errors
Selected range
Filename C:\CD\CD 1\Various Artists - 80s Stop 1.wav
Peak level 100.0 %
Extraction speed 8.4 X
Range quality 100.0 %
Test CRC 475E0260
Copy CRC 475E0260
Copy OK
No errors occurred
AccurateRip summary
Track 1 not present in database
Track 2 not present in database
Track 3 not present in database
Track 4 not present in database
Track 5 not present in database
Track 6 not present in database
Track 7 not present in database
Track 8 not present in database
Track 9 not present in database
Track 10 not present in database
Track 11 not present in database
Track 12 not present in database
Track 13 not present in database
Track 14 not present in database
Track 15 not present in database
Track 16 not present in database
Track 17 not present in database
Track 18 not present in database
Track 19 not present in database
Track 20 not present in database
None of the tracks are present in the AccurateRip database
End of status report
==== Log checksum DB48833DCF9774658190B692C79E32CE847452FBF4E6E862B0AB307B09D34664 ====
Замер динамического диапазона (DR):
 foobar2000 1.3.13 / Замер динамического диапазона (DR) 1.1.1
Дата отчёта: 2018-06-09 00:03:29
--------------------------------------------------------------------------------
Анализ: Survivor / 80s Stop 1 (1)
Jo Boxers / 80s Stop 1 (2)
Haysi Fantayzee / 80s Stop 1 (3)
Bonnie Tyler / 80s Stop 1 (4)
Rick Springfield / 80s Stop 1 (5)
John Farnham / 80s Stop 1 (6)
Mr. Mister / 80s Stop 1 (7)
Hall & Oates / 80s Stop 1 (8)
REO Speedwagon / 80s Stop 1 (9)
Meat Loaf / 80s Stop 1 (10)
Europe / 80s Stop 1 (11)
Cheap Trick / 80s Stop 1 (12)
Alice Cooper / 80s Stop 1 (13)
Toto / 80s Stop 1 (14)
Men At Work / 80s Stop 1 (15)
Kennie Loggins / 80s Stop 1 (16)
The Bangles / 80s Stop 1 (17)
The Thompson Twins / 80s Stop 1 (18)
Shakin' Stevens / 80s Stop 1 (19)
Alison Moyet / 80s Stop 1 (20)
--------------------------------------------------------------------------------
DR Пики RMS Продолжительность трека
--------------------------------------------------------------------------------
DR11 0.00 дБ -13.51 дБ 3:49 01-Eye Of The Tiger
DR8 -0.98 дБ -10.38 дБ 3:04 02-Boxerbeat
DR8 -1.05 дБ -9.99 дБ 3:21 03-John Wayne Is Big Leggy
DR10 0.00 дБ -12.66 дБ 4:29 04-Total Eclipse Of The Heart
DR9 0.00 дБ -11.01 дБ 3:15 05-Jessie's Girl
DR9 0.00 дБ -10.99 дБ 5:02 06-You're The Voice
DR8 0.00 дБ -10.90 дБ 4:15 07-Kyrie
DR12 0.00 дБ -12.95 дБ 4:32 08-Maneyter
DR8 0.00 дБ -10.04 дБ 3:21 09-Keep On Loving You
DR9 0.00 дБ -9.65 дБ 4:23 10-Dead Ringer For Love
DR7 0.00 дБ -8.65 дБ 4:31 11-Carrie
DR10 0.00 дБ -12.01 дБ 4:41 12-The Flame
DR9 0.00 дБ -11.64 дБ 4:30 13-Poison
DR10 0.00 дБ -12.19 дБ 4:59 14-Africa
DR11 0.00 дБ -13.31 дБ 3:23 15-Who Can It Be Now
DR6 -0.98 дБ -8.73 дБ 3:47 16-Footloose
DR9 0.00 дБ -12.02 дБ 3:57 17-Eternal Flame
DR10 0.00 дБ -12.05 дБ 4:08 18-You Take Me Up
DR12 0.00 дБ -13.16 дБ 3:05 19-This Ole House
DR10 0.00 дБ -11.48 дБ 4:02 20-Is This Love
--------------------------------------------------------------------------------
Количество треков:20
Реальные значения DR:DR9
Частота:44100 Гц
Каналов:2
Разрядность:16
Битрейт:958 кбит/с
Кодек:FLAC
================================================================================
 REM GENRE Pop
REM DATE 2010
REM DISCID 2E12E014
REM COMMENT "ExactAudioCopy v1.3"
CATALOG 0886977713125
PERFORMER "Various Artists"
TITLE "80s Stop 1"
REM COMPOSER ""
FILE "Various Artists - 80s Stop 1.flac" WAVE
TRACK 01 AUDIO
TITLE "Eye Of The Tiger"
PERFORMER "Survivor"
REM COMPOSER ""
ISRC USVR10400292
INDEX 01 00:00:00
TRACK 02 AUDIO
TITLE "Boxerbeat"
PERFORMER "Jo Boxers"
REM COMPOSER ""
ISRC GBARL8300052
INDEX 00 03:47:63
INDEX 01 03:48:63
TRACK 03 AUDIO
TITLE "John Wayne Is Big Leggy"
PERFORMER "Haysi Fantayzee"
REM COMPOSER ""
ISRC USRC18208050
INDEX 00 06:51:36
INDEX 01 06:52:36
TRACK 04 AUDIO
TITLE "Total Eclipse Of The Heart"
PERFORMER "Bonnie Tyler"
REM COMPOSER ""
ISRC GBBBN8300002
INDEX 00 10:12:64
INDEX 01 10:13:64
TRACK 05 AUDIO
TITLE "Jessie's Girl"
PERFORMER "Rick Springfield"
REM COMPOSER ""
ISRC USRC18108188
INDEX 00 14:42:13
INDEX 01 14:43:13
TRACK 06 AUDIO
TITLE "You're The Voice"
PERFORMER "John Farnham"
REM COMPOSER ""
ISRC AUBM08641001
INDEX 00 17:56:72
INDEX 01 17:57:72
TRACK 07 AUDIO
TITLE "Kyrie"
PERFORMER "Mr. Mister"
REM COMPOSER ""
ISRC USRC10100412
INDEX 00 22:58:49
INDEX 01 22:59:49
TRACK 08 AUDIO
TITLE "Maneyter"
PERFORMER "Hall & Oates"
REM COMPOSER ""
ISRC USRC10400906
INDEX 00 27:13:40
INDEX 01 27:14:40
TRACK 09 AUDIO
TITLE "Keep On Loving You"
PERFORMER "REO Speedwagon"
REM COMPOSER ""
ISRC USSM18800133
INDEX 00 31:45:36
INDEX 01 31:46:36
TRACK 10 AUDIO
TITLE "Dead Ringer For Love"
PERFORMER "Meat Loaf"
REM COMPOSER ""
ISRC USSM18100032
INDEX 00 35:06:02
INDEX 01 35:07:02
TRACK 11 AUDIO
TITLE "Carrie"
PERFORMER "Europe"
REM COMPOSER ""
ISRC USSM18600197
INDEX 00 39:29:10
INDEX 01 39:30:10
TRACK 12 AUDIO
TITLE "The Flame"
PERFORMER "Cheap Trick"
REM COMPOSER ""
ISRC USSM18700296
INDEX 00 44:00:05
INDEX 01 44:01:05
TRACK 13 AUDIO
TITLE "Poison"
PERFORMER "Alice Cooper"
REM COMPOSER ""
ISRC USSM18900004
INDEX 00 48:41:11
INDEX 01 48:42:11
TRACK 14 AUDIO
TITLE "Africa"
PERFORMER "Toto"
REM COMPOSER ""
ISRC USSM18200463
INDEX 00 53:11:33
INDEX 01 53:12:33
TRACK 15 AUDIO
TITLE "Who Can It Be Now"
PERFORMER "Men At Work"
REM COMPOSER ""
ISRC USSM18100057
INDEX 00 58:10:12
INDEX 01 58:11:12
TRACK 16 AUDIO
TITLE "Footloose"
PERFORMER "Kennie Loggins"
REM COMPOSER ""
ISRC USSM18400522
INDEX 00 61:32:61
INDEX 01 61:33:61
TRACK 17 AUDIO
TITLE "Eternal Flame"
PERFORMER "The Bangles"
REM COMPOSER ""
ISRC USSM18700216
INDEX 00 65:20:08
INDEX 01 65:21:08
TRACK 18 AUDIO
TITLE "You Take Me Up"
PERFORMER "The Thompson Twins"
REM COMPOSER ""
ISRC GBARK8300014
INDEX 00 69:16:71
INDEX 01 69:17:71
TRACK 19 AUDIO
TITLE "This Ole House"
PERFORMER "Shakin' Stevens"
REM COMPOSER ""
ISRC GBBBM0400154
INDEX 00 73:24:68
INDEX 01 73:25:68
TRACK 20 AUDIO
TITLE "Is This Love"
PERFORMER "Alison Moyet"
REM COMPOSER ""
ISRC GBBBN8602032
INDEX 00 76:29:60
INDEX 01 76:30:60
 Exact Audio Copy V1.3 from 2. September 2016
EAC extraction logfile from 8. June 2018, 16:31
Various Artists / 80s Stop 1
Used drive : ASUS DRW-24F1ST a Adapter: 1 ID: 1
Read mode : Secure
Utilize accurate stream : Yes
Defeat audio cache : Yes
Make use of C2 pointers : No
Read offset correction : 6
Overread into Lead-In and Lead-Out : No
Fill up missing offset samples with silence : Yes
Delete leading and trailing silent blocks : No
Null samples used in CRC calculations : Yes
Used interface : Native Win32 interface for Win NT & 2000
Used output format : User Defined Encoder
Selected bitrate : 128 kBit/s
Quality : High
Add ID3 tag : No
Command line compressor : C:\Program Files (x86)\Exact Audio Copy\Flac\flac.exe
Additional command line options : -V -8 -T "Genre=%genre%" -T "Artist=%artist%" -T "Title=%title%" -T "Album=%albumtitle%" -T "Date=%year%" -T "Tracknumber=%tracknr%" -T "Comment=%comment%" %source%
TOC of the extracted CD
Track | Start | Length | Start sector | End sector
---------------------------------------------------------
1 | 0:00.00 | 3:48.63 | 0 | 17162
2 | 3:48.63 | 3:03.48 | 17163 | 30935
3 | 6:52.36 | 3:21.28 | 30936 | 46038
4 | 10:13.64 | 4:29.24 | 46039 | 66237
5 | 14:43.13 | 3:14.59 | 66238 | 80846
6 | 17:57.72 | 5:01.52 | 80847 | 103473
7 | 22:59.49 | 4:14.66 | 103474 | 122589
8 | 27:14.40 | 4:31.71 | 122590 | 142985
9 | 31:46.36 | 3:20.41 | 142986 | 158026
10 | 35:07.02 | 4:23.08 | 158027 | 177759
11 | 39:30.10 | 4:30.70 | 177760 | 198079
12 | 44:01.05 | 4:41.06 | 198080 | 219160
13 | 48:42.11 | 4:30.22 | 219161 | 239432
14 | 53:12.33 | 4:58.54 | 239433 | 261836
15 | 58:11.12 | 3:22.49 | 261837 | 277035
16 | 61:33.61 | 3:47.22 | 277036 | 294082
17 | 65:21.08 | 3:56.63 | 294083 | 311845
18 | 69:17.71 | 4:07.72 | 311846 | 330442
19 | 73:25.68 | 3:04.67 | 330443 | 344309
20 | 76:30.60 | 4:01.46 | 344310 | 362430
Range status and errors
Selected range
Filename C:\CD\CD 1\Various Artists - 80s Stop 1.wav
Peak level 100.0 %
Extraction speed 8.4 X
Range quality 100.0 %
Test CRC 475E0260
Copy CRC 475E0260
Copy OK
No errors occurred
AccurateRip summary
Track 1 not present in database
Track 2 not present in database
Track 3 not present in database
Track 4 not present in database
Track 5 not present in database
Track 6 not present in database
Track 7 not present in database
Track 8 not present in database
Track 9 not present in database
Track 10 not present in database
Track 11 not present in database
Track 12 not present in database
Track 13 not present in database
Track 14 not present in database
Track 15 not present in database
Track 16 not present in database
Track 17 not present in database
Track 18 not present in database
Track 19 not present in database
Track 20 not present in database
None of the tracks are present in the AccurateRip database
End of status report
==== Log checksum DB48833DCF9774658190B692C79E32CE847452FBF4E6E862B0AB307B09D34664 ====
 foobar2000 1.3.13 / Замер динамического диапазона (DR) 1.1.1
Дата отчёта: 2018-06-09 00:03:29
--------------------------------------------------------------------------------
Анализ: Survivor / 80s Stop 1 (1)
Jo Boxers / 80s Stop 1 (2)
Haysi Fantayzee / 80s Stop 1 (3)
Bonnie Tyler / 80s Stop 1 (4)
Rick Springfield / 80s Stop 1 (5)
John Farnham / 80s Stop 1 (6)
Mr. Mister / 80s Stop 1 (7)
Hall & Oates / 80s Stop 1 (8)
REO Speedwagon / 80s Stop 1 (9)
Meat Loaf / 80s Stop 1 (10)
Europe / 80s Stop 1 (11)
Cheap Trick / 80s Stop 1 (12)
Alice Cooper / 80s Stop 1 (13)
Toto / 80s Stop 1 (14)
Men At Work / 80s Stop 1 (15)
Kennie Loggins / 80s Stop 1 (16)
The Bangles / 80s Stop 1 (17)
The Thompson Twins / 80s Stop 1 (18)
Shakin' Stevens / 80s Stop 1 (19)
Alison Moyet / 80s Stop 1 (20)
--------------------------------------------------------------------------------
DR Пики RMS Продолжительность трека
--------------------------------------------------------------------------------
DR11 0.00 дБ -13.51 дБ 3:49 01-Eye Of The Tiger
DR8 -0.98 дБ -10.38 дБ 3:04 02-Boxerbeat
DR8 -1.05 дБ -9.99 дБ 3:21 03-John Wayne Is Big Leggy
DR10 0.00 дБ -12.66 дБ 4:29 04-Total Eclipse Of The Heart
DR9 0.00 дБ -11.01 дБ 3:15 05-Jessie's Girl
DR9 0.00 дБ -10.99 дБ 5:02 06-You're The Voice
DR8 0.00 дБ -10.90 дБ 4:15 07-Kyrie
DR12 0.00 дБ -12.95 дБ 4:32 08-Maneyter
DR8 0.00 дБ -10.04 дБ 3:21 09-Keep On Loving You
DR9 0.00 дБ -9.65 дБ 4:23 10-Dead Ringer For Love
DR7 0.00 дБ -8.65 дБ 4:31 11-Carrie
DR10 0.00 дБ -12.01 дБ 4:41 12-The Flame
DR9 0.00 дБ -11.64 дБ 4:30 13-Poison
DR10 0.00 дБ -12.19 дБ 4:59 14-Africa
DR11 0.00 дБ -13.31 дБ 3:23 15-Who Can It Be Now
DR6 -0.98 дБ -8.73 дБ 3:47 16-Footloose
DR9 0.00 дБ -12.02 дБ 3:57 17-Eternal Flame
DR10 0.00 дБ -12.05 дБ 4:08 18-You Take Me Up
DR12 0.00 дБ -13.16 дБ 3:05 19-This Ole House
DR10 0.00 дБ -11.48 дБ 4:02 20-Is This Love
--------------------------------------------------------------------------------
Количество треков:20
Реальные значения DR:DR9
Частота:44100 Гц
Каналов:2
Разрядность:16
Битрейт:958 кбит/с
Кодек:FLAC
================================================================================
 ~ Продолжительность : 01:20:07
~ BitRate (min...max) : 959 kbps
01 RICK ASTLEY * Never Gonna Give You Up (03:34)
02 TAYLOR DAYNE * Tell It To My Heart (03:40)
03 GAZEBO * I Like Chopin (04:07)
04 DEN HARROW * Don't Break My Heart (03:53)
05 DENIECE WILLIAMS * Let's Hear It For The Boy (04:16)
06 BILL WITHERS * Lovely Day (04:11)
07 KC & THE SUNSHINE BAND * Give It Up (04:10)
08 MIAMI SOUND MACHINE * Rhythm Is Gonna Get You (03:56)
09 BLUE SYSTEM * Sorry Little Sarah (05:11)
10 MODERN TALKING * Cheri Cheri Lady (03:45)
11 THE WEATHER GIRLS * It's Raining Men (03:32)
12 ODYSSEY * Going Back Ty My Roots (03:25)
13 THE POINTER SISTERS * Jump (For My Love) (03:58)
14 BONEY M. * Happy Song (03:59)
15 MILLI VANILLI * Girl You Know It's True (04:00)
16 BILLY OCEAN * Get Outta My Dreams, Get Into My Car (04:44)
17 DEAD OR ALIVE * You Spin Me Round (Like A Record) (04:28)
18 FIVE STAR * Rain Or Shine (03:59)
19 S'EXPRESS * Theme From S'Express (03:55)
20 SINITTA * So Macho (03:24)
Содержание индексной карты (.CUE):
 REM GENRE Pop
REM DATE 2010
REM DISCID 2B12D014
REM COMMENT "ExactAudioCopy v1.3"
CATALOG 0886977713125
PERFORMER "Various Artists"
TITLE "80s Stop 2"
REM COMPOSER ""
FILE "Various Artists - 80s Stop 2.flac" WAVE
TRACK 01 AUDIO
TITLE "Never Gonna Give You Up"
PERFORMER "Rick Astley"
REM COMPOSER ""
ISRC GBARL8700052
INDEX 01 00:00:00
TRACK 02 AUDIO
TITLE "Tell It To My Heart"
PERFORMER "Taylor Dayne"
REM COMPOSER ""
ISRC USAR10400895
INDEX 00 03:33:25
INDEX 01 03:34:25
TRACK 03 AUDIO
TITLE "I Like Chopin"
PERFORMER "Gazebo"
REM COMPOSER ""
ISRC USBI10000192
INDEX 00 07:13:36
INDEX 01 07:14:36
TRACK 04 AUDIO
TITLE "Don't Break My Heart"
PERFORMER "Den Harrow"
REM COMPOSER ""
ISRC USBI10000134
INDEX 00 11:20:67
INDEX 01 11:21:67
TRACK 05 AUDIO
TITLE "Let's Hear It For The Boy"
PERFORMER "Deniece Williams"
REM COMPOSER ""
ISRC USSM18400508
INDEX 00 15:14:06
INDEX 01 15:15:06
TRACK 06 AUDIO
TITLE "Lovely Day"
PERFORMER "Bill Withers"
REM COMPOSER ""
ISRC USSM10311119
INDEX 00 19:30:57
INDEX 01 19:31:57
TRACK 07 AUDIO
TITLE "Give It Up"
PERFORMER "KC & The Sunshine Band"
REM COMPOSER ""
ISRC USSM19801505
INDEX 00 23:42:07
INDEX 01 23:43:07
TRACK 08 AUDIO
TITLE "Rhythm Is Gonna Get You"
PERFORMER "Miami Sound Machine"
REM COMPOSER ""
ISRC USSM10412403
INDEX 00 27:52:36
INDEX 01 27:53:36
TRACK 09 AUDIO
TITLE "Sorry Little Sarah"
PERFORMER "Blue System"
REM COMPOSER ""
ISRC DEC738700105
INDEX 00 31:49:08
INDEX 01 31:50:08
TRACK 10 AUDIO
TITLE "Cheri Cheri Lady"
PERFORMER "Modern Talking"
REM COMPOSER ""
ISRC DEC738500001
INDEX 00 37:00:43
INDEX 01 37:01:43
TRACK 11 AUDIO
TITLE "It's Raining Men"
PERFORMER "The Weather Girls"
REM COMPOSER ""
ISRC USSM19913325
INDEX 00 40:46:05
INDEX 01 40:47:05
TRACK 12 AUDIO
TITLE "Going Back Ty My Roots"
PERFORMER "Odyssey"
REM COMPOSER ""
ISRC USRC17908018
INDEX 00 44:18:58
INDEX 01 44:19:58
TRACK 13 AUDIO
TITLE "Jump (For My Love)"
PERFORMER "The Pointer Sisters"
REM COMPOSER ""
ISRC USRC18308013
INDEX 00 47:44:35
INDEX 01 47:45:35
TRACK 14 AUDIO
TITLE "Happy Song"
PERFORMER "Boney M."
REM COMPOSER ""
ISRC DED168400016
INDEX 00 51:43:05
INDEX 01 51:44:05
TRACK 15 AUDIO
TITLE "Girl You Know It's True"
PERFORMER "Milli Vanilli"
REM COMPOSER ""
ISRC DEC738800004
INDEX 00 55:42:55
INDEX 01 55:43:55
TRACK 16 AUDIO
TITLE "Get Outta My Dreams, Get Into My Car"
PERFORMER "Billy Ocean"
REM COMPOSER ""
ISRC GBAHK9700111
INDEX 00 59:42:62
INDEX 01 59:43:62
TRACK 17 AUDIO
TITLE "You Spin Me Round (Like A Record)"
PERFORMER "Dead Or Alive"
REM COMPOSER ""
ISRC GBBBN0009467
INDEX 00 64:27:61
INDEX 01 64:28:61
TRACK 18 AUDIO
TITLE "Rain Or Shine"
PERFORMER "Five Star"
REM COMPOSER ""
ISRC GBARL8600005
INDEX 00 68:56:02
INDEX 01 68:57:02
TRACK 19 AUDIO
TITLE "Theme From S'Express"
PERFORMER "S'Express"
REM COMPOSER ""
ISRC GBARL8800012
INDEX 00 72:55:29
INDEX 01 72:56:29
TRACK 20 AUDIO
TITLE "So Macho"
PERFORMER "Sinitta"
REM COMPOSER ""
ISRC GBARK8600048
INDEX 00 76:51:15
INDEX 01 76:52:15
Отчёт EAC:
 Exact Audio Copy V1.3 from 2. September 2016
EAC extraction logfile from 8. June 2018, 17:28
Various Artists / 80s Stop 2
Used drive : ASUS DRW-24F1ST a Adapter: 1 ID: 1
Read mode : Secure
Utilize accurate stream : Yes
Defeat audio cache : Yes
Make use of C2 pointers : No
Read offset correction : 6
Overread into Lead-In and Lead-Out : No
Fill up missing offset samples with silence : Yes
Delete leading and trailing silent blocks : No
Null samples used in CRC calculations : Yes
Used interface : Native Win32 interface for Win NT & 2000
Used output format : User Defined Encoder
Selected bitrate : 128 kBit/s
Quality : High
Add ID3 tag : No
Command line compressor : C:\Program Files (x86)\Exact Audio Copy\Flac\flac.exe
Additional command line options : -V -8 -T "Genre=%genre%" -T "Artist=%artist%" -T "Title=%title%" -T "Album=%albumtitle%" -T "Date=%year%" -T "Tracknumber=%tracknr%" -T "Comment=%comment%" %source%
TOC of the extracted CD
Track | Start | Length | Start sector | End sector
---------------------------------------------------------
1 | 0:00.00 | 3:34.25 | 0 | 16074
2 | 3:34.25 | 3:40.11 | 16075 | 32585
3 | 7:14.36 | 4:07.31 | 32586 | 51141
4 | 11:21.67 | 3:53.14 | 51142 | 68630
5 | 15:15.06 | 4:16.51 | 68631 | 87881
6 | 19:31.57 | 4:11.25 | 87882 | 106731
7 | 23:43.07 | 4:10.29 | 106732 | 125510
8 | 27:53.36 | 3:56.47 | 125511 | 143257
9 | 31:50.08 | 5:11.35 | 143258 | 166617
10 | 37:01.43 | 3:45.37 | 166618 | 183529
11 | 40:47.05 | 3:32.53 | 183530 | 199482
12 | 44:19.58 | 3:25.52 | 199483 | 214909
13 | 47:45.35 | 3:58.45 | 214910 | 232804
14 | 51:44.05 | 3:59.50 | 232805 | 250779
15 | 55:43.55 | 4:00.07 | 250780 | 268786
16 | 59:43.62 | 4:44.74 | 268787 | 290160
17 | 64:28.61 | 4:28.16 | 290161 | 310276
18 | 68:57.02 | 3:59.27 | 310277 | 328228
19 | 72:56.29 | 3:55.61 | 328229 | 345914
20 | 76:52.15 | 3:24.30 | 345915 | 361244
Range status and errors
Selected range
Filename C:\CD\CD 2\Various Artists - 80s Stop 2.wav
Peak level 100.0 %
Extraction speed 3.4 X
Range quality 100.0 %
Test CRC CDCE0F31
Copy CRC CDCE0F31
Copy OK
No errors occurred
AccurateRip summary
Track 1 not present in database
Track 2 not present in database
Track 3 not present in database
Track 4 not present in database
Track 5 not present in database
Track 6 not present in database
Track 7 not present in database
Track 8 not present in database
Track 9 not present in database
Track 10 not present in database
Track 11 not present in database
Track 12 not present in database
Track 13 not present in database
Track 14 not present in database
Track 15 not present in database
Track 16 not present in database
Track 17 not present in database
Track 18 not present in database
Track 19 not present in database
Track 20 not present in database
None of the tracks are present in the AccurateRip database
End of status report
==== Log checksum DFE7880E5FF8D3AD84085DA27A3A75416D4A3DC57A5A6A5E2E924048CF896E5B ====
Замер динамического диапазона (DR):
 foobar2000 1.3.13 / Замер динамического диапазона (DR) 1.1.1
Дата отчёта: 2018-06-09 00:05:55
--------------------------------------------------------------------------------
Анализ: Rick Astley / 80s Stop 2 (1)
Taylor Dayne / 80s Stop 2 (2)
Gazebo / 80s Stop 2 (3)
Den Harrow / 80s Stop 2 (4)
Deniece Williams / 80s Stop 2 (5)
Bill Withers / 80s Stop 2 (6)
KC & The Sunshine Band / 80s Stop 2 (7)
Miami Sound Machine / 80s Stop 2 (8)
Blue System / 80s Stop 2 (9)
Modern Talking / 80s Stop 2 (10)
The Weather Girls / 80s Stop 2 (11)
Odyssey / 80s Stop 2 (12)
The Pointer Sisters / 80s Stop 2 (13)
Boney M. / 80s Stop 2 (14)
Milli Vanilli / 80s Stop 2 (15)
Billy Ocean / 80s Stop 2 (16)
Dead Or Alive / 80s Stop 2 (17)
Five Star / 80s Stop 2 (18)
S'Express / 80s Stop 2 (19)
Sinitta / 80s Stop 2 (20)
--------------------------------------------------------------------------------
DR Пики RMS Продолжительность трека
--------------------------------------------------------------------------------
DR11 0.00 дБ -12.65 дБ 3:34 01-Never Gonna Give You Up
DR8 -1.02 дБ -9.74 дБ 3:40 02-Tell It To My Heart
DR7 -0.95 дБ -10.11 дБ 4:07 03-I Like Chopin
DR11 0.00 дБ -13.05 дБ 3:53 04-Don't Break My Heart
DR10 0.00 дБ -11.49 дБ 4:17 05-Let's Hear It For The Boy
DR9 0.00 дБ -11.66 дБ 4:11 06-Lovely Day
DR9 -0.98 дБ -11.42 дБ 4:10 07-Give It Up
DR8 -0.98 дБ -11.35 дБ 3:57 08-Rhythm Is Gonna Get You
DR13 0.00 дБ -14.18 дБ 5:11 09-Sorry Little Sarah
DR5 -1.55 дБ -7.54 дБ 3:45 10-Cheri Cheri Lady
DR7 -0.68 дБ -9.35 дБ 3:33 11-It's Raining Men
DR10 0.00 дБ -11.69 дБ 3:26 12-Going Back Ty My Roots
DR9 0.00 дБ -11.04 дБ 3:59 13-Jump (For My Love)
DR12 0.00 дБ -13.39 дБ 4:00 14-Happy Song
DR8 0.00 дБ -9.70 дБ 4:00 15-Girl You Know It's True
DR9 -0.54 дБ -10.99 дБ 4:45 16-Get Outta My Dreams, Get Into My Car
DR11 0.00 дБ -12.29 дБ 4:28 17-You Spin Me Round (Like A Record)
DR8 -1.02 дБ -10.74 дБ 3:59 18-Rain Or Shine
DR9 -0.94 дБ -11.82 дБ 3:56 19-Theme From S'Express
DR8 -0.91 дБ -10.37 дБ 3:24 20-So Macho
--------------------------------------------------------------------------------
Количество треков:20
Реальные значения DR:DR9
Частота:44100 Гц
Каналов:2
Разрядность:16
Битрейт:958 кбит/с
Кодек:FLAC
================================================================================
 REM GENRE Pop
REM DATE 2010
REM DISCID 2B12D014
REM COMMENT "ExactAudioCopy v1.3"
CATALOG 0886977713125
PERFORMER "Various Artists"
TITLE "80s Stop 2"
REM COMPOSER ""
FILE "Various Artists - 80s Stop 2.flac" WAVE
TRACK 01 AUDIO
TITLE "Never Gonna Give You Up"
PERFORMER "Rick Astley"
REM COMPOSER ""
ISRC GBARL8700052
INDEX 01 00:00:00
TRACK 02 AUDIO
TITLE "Tell It To My Heart"
PERFORMER "Taylor Dayne"
REM COMPOSER ""
ISRC USAR10400895
INDEX 00 03:33:25
INDEX 01 03:34:25
TRACK 03 AUDIO
TITLE "I Like Chopin"
PERFORMER "Gazebo"
REM COMPOSER ""
ISRC USBI10000192
INDEX 00 07:13:36
INDEX 01 07:14:36
TRACK 04 AUDIO
TITLE "Don't Break My Heart"
PERFORMER "Den Harrow"
REM COMPOSER ""
ISRC USBI10000134
INDEX 00 11:20:67
INDEX 01 11:21:67
TRACK 05 AUDIO
TITLE "Let's Hear It For The Boy"
PERFORMER "Deniece Williams"
REM COMPOSER ""
ISRC USSM18400508
INDEX 00 15:14:06
INDEX 01 15:15:06
TRACK 06 AUDIO
TITLE "Lovely Day"
PERFORMER "Bill Withers"
REM COMPOSER ""
ISRC USSM10311119
INDEX 00 19:30:57
INDEX 01 19:31:57
TRACK 07 AUDIO
TITLE "Give It Up"
PERFORMER "KC & The Sunshine Band"
REM COMPOSER ""
ISRC USSM19801505
INDEX 00 23:42:07
INDEX 01 23:43:07
TRACK 08 AUDIO
TITLE "Rhythm Is Gonna Get You"
PERFORMER "Miami Sound Machine"
REM COMPOSER ""
ISRC USSM10412403
INDEX 00 27:52:36
INDEX 01 27:53:36
TRACK 09 AUDIO
TITLE "Sorry Little Sarah"
PERFORMER "Blue System"
REM COMPOSER ""
ISRC DEC738700105
INDEX 00 31:49:08
INDEX 01 31:50:08
TRACK 10 AUDIO
TITLE "Cheri Cheri Lady"
PERFORMER "Modern Talking"
REM COMPOSER ""
ISRC DEC738500001
INDEX 00 37:00:43
INDEX 01 37:01:43
TRACK 11 AUDIO
TITLE "It's Raining Men"
PERFORMER "The Weather Girls"
REM COMPOSER ""
ISRC USSM19913325
INDEX 00 40:46:05
INDEX 01 40:47:05
TRACK 12 AUDIO
TITLE "Going Back Ty My Roots"
PERFORMER "Odyssey"
REM COMPOSER ""
ISRC USRC17908018
INDEX 00 44:18:58
INDEX 01 44:19:58
TRACK 13 AUDIO
TITLE "Jump (For My Love)"
PERFORMER "The Pointer Sisters"
REM COMPOSER ""
ISRC USRC18308013
INDEX 00 47:44:35
INDEX 01 47:45:35
TRACK 14 AUDIO
TITLE "Happy Song"
PERFORMER "Boney M."
REM COMPOSER ""
ISRC DED168400016
INDEX 00 51:43:05
INDEX 01 51:44:05
TRACK 15 AUDIO
TITLE "Girl You Know It's True"
PERFORMER "Milli Vanilli"
REM COMPOSER ""
ISRC DEC738800004
INDEX 00 55:42:55
INDEX 01 55:43:55
TRACK 16 AUDIO
TITLE "Get Outta My Dreams, Get Into My Car"
PERFORMER "Billy Ocean"
REM COMPOSER ""
ISRC GBAHK9700111
INDEX 00 59:42:62
INDEX 01 59:43:62
TRACK 17 AUDIO
TITLE "You Spin Me Round (Like A Record)"
PERFORMER "Dead Or Alive"
REM COMPOSER ""
ISRC GBBBN0009467
INDEX 00 64:27:61
INDEX 01 64:28:61
TRACK 18 AUDIO
TITLE "Rain Or Shine"
PERFORMER "Five Star"
REM COMPOSER ""
ISRC GBARL8600005
INDEX 00 68:56:02
INDEX 01 68:57:02
TRACK 19 AUDIO
TITLE "Theme From S'Express"
PERFORMER "S'Express"
REM COMPOSER ""
ISRC GBARL8800012
INDEX 00 72:55:29
INDEX 01 72:56:29
TRACK 20 AUDIO
TITLE "So Macho"
PERFORMER "Sinitta"
REM COMPOSER ""
ISRC GBARK8600048
INDEX 00 76:51:15
INDEX 01 76:52:15
 Exact Audio Copy V1.3 from 2. September 2016
EAC extraction logfile from 8. June 2018, 17:28
Various Artists / 80s Stop 2
Used drive : ASUS DRW-24F1ST a Adapter: 1 ID: 1
Read mode : Secure
Utilize accurate stream : Yes
Defeat audio cache : Yes
Make use of C2 pointers : No
Read offset correction : 6
Overread into Lead-In and Lead-Out : No
Fill up missing offset samples with silence : Yes
Delete leading and trailing silent blocks : No
Null samples used in CRC calculations : Yes
Used interface : Native Win32 interface for Win NT & 2000
Used output format : User Defined Encoder
Selected bitrate : 128 kBit/s
Quality : High
Add ID3 tag : No
Command line compressor : C:\Program Files (x86)\Exact Audio Copy\Flac\flac.exe
Additional command line options : -V -8 -T "Genre=%genre%" -T "Artist=%artist%" -T "Title=%title%" -T "Album=%albumtitle%" -T "Date=%year%" -T "Tracknumber=%tracknr%" -T "Comment=%comment%" %source%
TOC of the extracted CD
Track | Start | Length | Start sector | End sector
---------------------------------------------------------
1 | 0:00.00 | 3:34.25 | 0 | 16074
2 | 3:34.25 | 3:40.11 | 16075 | 32585
3 | 7:14.36 | 4:07.31 | 32586 | 51141
4 | 11:21.67 | 3:53.14 | 51142 | 68630
5 | 15:15.06 | 4:16.51 | 68631 | 87881
6 | 19:31.57 | 4:11.25 | 87882 | 106731
7 | 23:43.07 | 4:10.29 | 106732 | 125510
8 | 27:53.36 | 3:56.47 | 125511 | 143257
9 | 31:50.08 | 5:11.35 | 143258 | 166617
10 | 37:01.43 | 3:45.37 | 166618 | 183529
11 | 40:47.05 | 3:32.53 | 183530 | 199482
12 | 44:19.58 | 3:25.52 | 199483 | 214909
13 | 47:45.35 | 3:58.45 | 214910 | 232804
14 | 51:44.05 | 3:59.50 | 232805 | 250779
15 | 55:43.55 | 4:00.07 | 250780 | 268786
16 | 59:43.62 | 4:44.74 | 268787 | 290160
17 | 64:28.61 | 4:28.16 | 290161 | 310276
18 | 68:57.02 | 3:59.27 | 310277 | 328228
19 | 72:56.29 | 3:55.61 | 328229 | 345914
20 | 76:52.15 | 3:24.30 | 345915 | 361244
Range status and errors
Selected range
Filename C:\CD\CD 2\Various Artists - 80s Stop 2.wav
Peak level 100.0 %
Extraction speed 3.4 X
Range quality 100.0 %
Test CRC CDCE0F31
Copy CRC CDCE0F31
Copy OK
No errors occurred
AccurateRip summary
Track 1 not present in database
Track 2 not present in database
Track 3 not present in database
Track 4 not present in database
Track 5 not present in database
Track 6 not present in database
Track 7 not present in database
Track 8 not present in database
Track 9 not present in database
Track 10 not present in database
Track 11 not present in database
Track 12 not present in database
Track 13 not present in database
Track 14 not present in database
Track 15 not present in database
Track 16 not present in database
Track 17 not present in database
Track 18 not present in database
Track 19 not present in database
Track 20 not present in database
None of the tracks are present in the AccurateRip database
End of status report
==== Log checksum DFE7880E5FF8D3AD84085DA27A3A75416D4A3DC57A5A6A5E2E924048CF896E5B ====
 foobar2000 1.3.13 / Замер динамического диапазона (DR) 1.1.1
Дата отчёта: 2018-06-09 00:05:55
--------------------------------------------------------------------------------
Анализ: Rick Astley / 80s Stop 2 (1)
Taylor Dayne / 80s Stop 2 (2)
Gazebo / 80s Stop 2 (3)
Den Harrow / 80s Stop 2 (4)
Deniece Williams / 80s Stop 2 (5)
Bill Withers / 80s Stop 2 (6)
KC & The Sunshine Band / 80s Stop 2 (7)
Miami Sound Machine / 80s Stop 2 (8)
Blue System / 80s Stop 2 (9)
Modern Talking / 80s Stop 2 (10)
The Weather Girls / 80s Stop 2 (11)
Odyssey / 80s Stop 2 (12)
The Pointer Sisters / 80s Stop 2 (13)
Boney M. / 80s Stop 2 (14)
Milli Vanilli / 80s Stop 2 (15)
Billy Ocean / 80s Stop 2 (16)
Dead Or Alive / 80s Stop 2 (17)
Five Star / 80s Stop 2 (18)
S'Express / 80s Stop 2 (19)
Sinitta / 80s Stop 2 (20)
--------------------------------------------------------------------------------
DR Пики RMS Продолжительность трека
--------------------------------------------------------------------------------
DR11 0.00 дБ -12.65 дБ 3:34 01-Never Gonna Give You Up
DR8 -1.02 дБ -9.74 дБ 3:40 02-Tell It To My Heart
DR7 -0.95 дБ -10.11 дБ 4:07 03-I Like Chopin
DR11 0.00 дБ -13.05 дБ 3:53 04-Don't Break My Heart
DR10 0.00 дБ -11.49 дБ 4:17 05-Let's Hear It For The Boy
DR9 0.00 дБ -11.66 дБ 4:11 06-Lovely Day
DR9 -0.98 дБ -11.42 дБ 4:10 07-Give It Up
DR8 -0.98 дБ -11.35 дБ 3:57 08-Rhythm Is Gonna Get You
DR13 0.00 дБ -14.18 дБ 5:11 09-Sorry Little Sarah
DR5 -1.55 дБ -7.54 дБ 3:45 10-Cheri Cheri Lady
DR7 -0.68 дБ -9.35 дБ 3:33 11-It's Raining Men
DR10 0.00 дБ -11.69 дБ 3:26 12-Going Back Ty My Roots
DR9 0.00 дБ -11.04 дБ 3:59 13-Jump (For My Love)
DR12 0.00 дБ -13.39 дБ 4:00 14-Happy Song
DR8 0.00 дБ -9.70 дБ 4:00 15-Girl You Know It's True
DR9 -0.54 дБ -10.99 дБ 4:45 16-Get Outta My Dreams, Get Into My Car
DR11 0.00 дБ -12.29 дБ 4:28 17-You Spin Me Round (Like A Record)
DR8 -1.02 дБ -10.74 дБ 3:59 18-Rain Or Shine
DR9 -0.94 дБ -11.82 дБ 3:56 19-Theme From S'Express
DR8 -0.91 дБ -10.37 дБ 3:24 20-So Macho
--------------------------------------------------------------------------------
Количество треков:20
Реальные значения DR:DR9
Частота:44100 Гц
Каналов:2
Разрядность:16
Битрейт:958 кбит/с
Кодек:FLAC
================================================================================
 ~ Продолжительность : 01:16:43
~ BitRate (min...max) : 959 kbps
01 WHAM! * Wake Me Up Before You Go-Go (03:51)
02 TERENCE TRENT D'ARBY * Whishing Well (03:31)
03 FICTION FACTORY * (Feels Like) Heaven (03:30)
04 ALTERED IMAGES * Happy Birthday (02:59)
05 ADAM ANT * Goody Two Shoes (03:30)
06 MR. MISTER * Broken Wings (04:35)
07 CYNDI LAUPER * Time After Time (04:00)
08 MEN AT WORK * Down Under (03:39)
09 THE THOMPSON TWINS * Hold Me Now (04:44)
10 THE BLOW MONKEYS * It Doesn't Have To Be This Way (04:02)
11 A FLOCK OF SEAGULLS * I Ran (03:40)
12 NENA * 99 Red Balloons (03:50)
13 RAY PARKER JUNIOR * Ghostbusters (03:58)
14 STARSHIP * Nothing's Gonna Stop Us Now (04:25)
15 JENNIFER RUSH * I Come Undone (04:08)
16 ANEKA * Japanese Boy (03:57)
17 FAIRGROUND ATTRACTION * Perfect (03:36)
18 KING * Love And Pride (03:21)
19 OWEN PAUL * My Favourite Waste Of Time (03:26)
20 NICK HEYWARD * Blue Hat For A Blue Day (04:01)
Содержание индексной карты (.CUE):
 REM GENRE Pop
REM DATE 2010
REM DISCID 20120214
REM COMMENT "ExactAudioCopy v1.3"
CATALOG 0886977713125
PERFORMER "Various Artists"
TITLE "80s Stop 3"
REM COMPOSER ""
FILE "Various Artists - 80s Stop 3.flac" WAVE
TRACK 01 AUDIO
TITLE "Wake Me Up Before You Go-Go"
PERFORMER "Wham!"
REM COMPOSER ""
ISRC GBBBN0009712
INDEX 01 00:00:00
TRACK 02 AUDIO
TITLE "Whishing Well"
PERFORMER "Terence Trent D'Arby"
REM COMPOSER ""
ISRC GBBBN8700003
INDEX 00 03:50:26
INDEX 01 03:51:26
TRACK 03 AUDIO
TITLE "(Feels Like) Heaven"
PERFORMER "Fiction Factory"
REM COMPOSER ""
ISRC GBBBN8400001
INDEX 00 07:21:60
INDEX 01 07:22:60
TRACK 04 AUDIO
TITLE "Happy Birthday"
PERFORMER "Altered Images"
REM COMPOSER ""
ISRC USSM10030041
INDEX 00 10:52:25
INDEX 01 10:53:25
TRACK 05 AUDIO
TITLE "Goody Two Shoes"
PERFORMER "Adam Ant"
REM COMPOSER ""
ISRC GBBBN0500060
INDEX 00 13:51:31
INDEX 01 13:52:31
TRACK 06 AUDIO
TITLE "Broken Wings"
PERFORMER "Mr. Mister"
REM COMPOSER ""
ISRC USRC18404637
INDEX 00 17:21:50
INDEX 01 17:22:50
TRACK 07 AUDIO
TITLE "Time After Time"
PERFORMER "Cyndi Lauper"
REM COMPOSER ""
ISRC USSM18300847
INDEX 00 21:57:24
INDEX 01 21:58:24
TRACK 08 AUDIO
TITLE "Down Under"
PERFORMER "Men At Work"
REM COMPOSER ""
ISRC USSM18100058
INDEX 00 25:57:24
INDEX 01 25:58:24
TRACK 09 AUDIO
TITLE "Hold Me Now"
PERFORMER "The Thompson Twins"
REM COMPOSER ""
ISRC GBARK8300013
INDEX 00 29:36:30
INDEX 01 29:37:30
TRACK 10 AUDIO
TITLE "It Doesn't Have To Be This Way"
PERFORMER "The Blow Monkeys"
REM COMPOSER ""
ISRC GBARL8700037
INDEX 00 34:20:60
INDEX 01 34:21:60
TRACK 11 AUDIO
TITLE "I Ran"
PERFORMER "A Flock Of Seagulls"
REM COMPOSER ""
ISRC GBAHK0500042
INDEX 00 38:23:02
INDEX 01 38:24:02
TRACK 12 AUDIO
TITLE "99 Red Balloons"
PERFORMER "Nena"
REM COMPOSER ""
ISRC DEE860003002
INDEX 00 42:03:30
INDEX 01 42:04:30
TRACK 13 AUDIO
TITLE "Ghostbusters"
PERFORMER "Ray Parker Junior"
REM COMPOSER ""
ISRC USAR18400117
INDEX 00 45:54:11
INDEX 01 45:55:11
TRACK 14 AUDIO
TITLE "Nothing's Gonna Stop Us Now"
PERFORMER "Starship"
REM COMPOSER ""
ISRC USRC18702968
INDEX 00 49:52:69
INDEX 01 49:53:69
TRACK 15 AUDIO
TITLE "I Come Undone"
PERFORMER "Jennifer Rush"
REM COMPOSER ""
ISRC DEE868700038
INDEX 00 54:18:21
INDEX 01 54:19:21
TRACK 16 AUDIO
TITLE "Japanese Boy"
PERFORMER "Aneka"
REM COMPOSER ""
ISRC GBARL8100014
INDEX 00 58:26:45
INDEX 01 58:27:45
TRACK 17 AUDIO
TITLE "Perfect"
PERFORMER "Fairground Attraction"
REM COMPOSER ""
ISRC GBARL8800011
INDEX 00 62:23:56
INDEX 01 62:24:56
TRACK 18 AUDIO
TITLE "Love And Pride"
PERFORMER "King"
REM COMPOSER ""
ISRC GBBBN8400002
INDEX 00 66:00:30
INDEX 01 66:01:30
TRACK 19 AUDIO
TITLE "My Favourite Waste Of Time"
PERFORMER "Owen Paul"
REM COMPOSER ""
ISRC GBBBM8600006
INDEX 00 69:21:66
INDEX 01 69:22:66
TRACK 20 AUDIO
TITLE "Blue Hat For A Blue Day"
PERFORMER "Nick Heyward"
REM COMPOSER ""
ISRC GBARK8300005
INDEX 00 72:48:52
INDEX 01 72:49:52
Отчёт EAC:
 Exact Audio Copy V1.3 from 2. September 2016
EAC extraction logfile from 8. June 2018, 18:42
Various Artists / 80s Stop 3
Used drive : ASUS DRW-24F1ST a Adapter: 1 ID: 1
Read mode : Secure
Utilize accurate stream : Yes
Defeat audio cache : Yes
Make use of C2 pointers : No
Read offset correction : 6
Overread into Lead-In and Lead-Out : No
Fill up missing offset samples with silence : Yes
Delete leading and trailing silent blocks : No
Null samples used in CRC calculations : Yes
Used interface : Native Win32 interface for Win NT & 2000
Used output format : User Defined Encoder
Selected bitrate : 128 kBit/s
Quality : High
Add ID3 tag : No
Command line compressor : C:\Program Files (x86)\Exact Audio Copy\Flac\flac.exe
Additional command line options : -V -8 -T "Genre=%genre%" -T "Artist=%artist%" -T "Title=%title%" -T "Album=%albumtitle%" -T "Date=%year%" -T "Tracknumber=%tracknr%" -T "Comment=%comment%" %source%
TOC of the extracted CD
Track | Start | Length | Start sector | End sector
---------------------------------------------------------
1 | 0:00.00 | 3:51.26 | 0 | 17350
2 | 3:51.26 | 3:31.34 | 17351 | 33209
3 | 7:22.60 | 3:30.40 | 33210 | 48999
4 | 10:53.25 | 2:59.06 | 49000 | 62430
5 | 13:52.31 | 3:30.19 | 62431 | 78199
6 | 17:22.50 | 4:35.49 | 78200 | 98873
7 | 21:58.24 | 4:00.00 | 98874 | 116873
8 | 25:58.24 | 3:39.06 | 116874 | 133304
9 | 29:37.30 | 4:44.30 | 133305 | 154634
10 | 34:21.60 | 4:02.17 | 154635 | 172801
11 | 38:24.02 | 3:40.28 | 172802 | 189329
12 | 42:04.30 | 3:50.56 | 189330 | 206635
13 | 45:55.11 | 3:58.58 | 206636 | 224543
14 | 49:53.69 | 4:25.27 | 224544 | 244445
15 | 54:19.21 | 4:08.24 | 244446 | 263069
16 | 58:27.45 | 3:57.11 | 263070 | 280855
17 | 62:24.56 | 3:36.49 | 280856 | 297104
18 | 66:01.30 | 3:21.36 | 297105 | 312215
19 | 69:22.66 | 3:26.61 | 312216 | 327726
20 | 72:49.52 | 4:01.16 | 327727 | 345817
Range status and errors
Selected range
Filename C:\CD\CD 3\Various Artists - 80s Stop 3.wav
Peak level 100.0 %
Extraction speed 2.9 X
Range quality 100.0 %
Test CRC E8959511
Copy CRC E8959511
Copy OK
No errors occurred
AccurateRip summary
Track 1 accurately ripped (confidence 2) [E1B8DDA7] (AR v2)
Track 2 accurately ripped (confidence 2) [9D0B93A4] (AR v2)
Track 3 accurately ripped (confidence 2) [D36C28C0] (AR v2)
Track 4 accurately ripped (confidence 2) [4C3CEC26] (AR v2)
Track 5 accurately ripped (confidence 2) [242A711D] (AR v2)
Track 6 accurately ripped (confidence 2) [F972EDA9] (AR v2)
Track 7 accurately ripped (confidence 2) [7F8D0A19] (AR v2)
Track 8 accurately ripped (confidence 2) [AA08C07B] (AR v2)
Track 9 accurately ripped (confidence 2) [5792B6A0] (AR v2)
Track 10 accurately ripped (confidence 2) [E210DA8E] (AR v2)
Track 11 accurately ripped (confidence 2) [9148E5CF] (AR v2)
Track 12 accurately ripped (confidence 2) [69B6B871] (AR v2)
Track 13 accurately ripped (confidence 2) [026E3723] (AR v2)
Track 14 accurately ripped (confidence 2) [F5D82DDF] (AR v2)
Track 15 accurately ripped (confidence 2) [611746DE] (AR v2)
Track 16 accurately ripped (confidence 2) [A6DE6628] (AR v2)
Track 17 accurately ripped (confidence 2) [421BAECC] (AR v2)
Track 18 accurately ripped (confidence 2) [9A2843E2] (AR v2)
Track 19 accurately ripped (confidence 2) [774B3014] (AR v2)
Track 20 accurately ripped (confidence 2) [EB7DB147] (AR v2)
All tracks accurately ripped
End of status report
==== Log checksum 24F631653F4D6C770C68ACFFBF25EABEF0356BADF57892E95487FFBEF41B4214 ====
Замер динамического диапазона (DR):
 foobar2000 1.3.13 / Замер динамического диапазона (DR) 1.1.1
Дата отчёта: 2018-06-09 00:08:29
--------------------------------------------------------------------------------
Анализ: Wham! / 80s Stop 3 (1)
Terence Trent D'Arby / 80s Stop 3 (2)
Fiction Factory / 80s Stop 3 (3)
Altered Images / 80s Stop 3 (4)
Adam Ant / 80s Stop 3 (5)
Mr. Mister / 80s Stop 3 (6)
Cyndi Lauper / 80s Stop 3 (7)
Men At Work / 80s Stop 3 (8)
The Thompson Twins / 80s Stop 3 (9)
The Blow Monkeys / 80s Stop 3 (10)
A Flock Of Seagulls / 80s Stop 3 (11)
Nena / 80s Stop 3 (12)
Ray Parker Junior / 80s Stop 3 (13)
Starship / 80s Stop 3 (14)
Jennifer Rush / 80s Stop 3 (15)
Aneka / 80s Stop 3 (16)
Fairground Attraction / 80s Stop 3 (17)
King / 80s Stop 3 (18)
Owen Paul / 80s Stop 3 (19)
Nick Heyward / 80s Stop 3 (20)
--------------------------------------------------------------------------------
DR Пики RMS Продолжительность трека
--------------------------------------------------------------------------------
DR9 0.00 дБ -10.29 дБ 3:51 01-Wake Me Up Before You Go-Go
DR11 0.00 дБ -12.33 дБ 3:31 02-Whishing Well
DR11 0.00 дБ -13.00 дБ 3:31 03-(Feels Like) Heaven
DR9 0.00 дБ -10.16 дБ 2:59 04-Happy Birthday
DR7 -0.97 дБ -8.67 дБ 3:30 05-Goody Two Shoes
DR8 0.00 дБ -9.21 дБ 4:36 06-Broken Wings
DR10 0.00 дБ -12.46 дБ 4:00 07-Time After Time
DR9 -0.97 дБ -11.26 дБ 3:39 08-Down Under
DR8 -0.97 дБ -11.07 дБ 4:44 09-Hold Me Now
DR10 0.00 дБ -11.69 дБ 4:02 10-It Doesn't Have To Be This Way
DR9 0.00 дБ -10.07 дБ 3:40 11-I Ran
DR9 0.00 дБ -11.64 дБ 3:51 12-99 Red Balloons
DR12 0.00 дБ -13.05 дБ 3:59 13-Ghostbusters
DR10 0.00 дБ -11.90 дБ 4:25 14-Nothing's Gonna Stop Us Now
DR12 0.00 дБ -14.02 дБ 4:08 15-I Come Undone
DR9 0.00 дБ -10.14 дБ 3:57 16-Japanese Boy
DR7 -0.98 дБ -10.19 дБ 3:37 17-Perfect
DR10 0.00 дБ -12.18 дБ 3:21 18-Love And Pride
DR12 0.00 дБ -13.76 дБ 3:27 19-My Favourite Waste Of Time
DR9 -0.43 дБ -11.62 дБ 4:01 20-Blue Hat For A Blue Day
--------------------------------------------------------------------------------
Количество треков:20
Реальные значения DR:DR10
Частота:44100 Гц
Каналов:2
Разрядность:16
Битрейт:959 кбит/с
Кодек:FLAC
================================================================================
 REM GENRE Pop
REM DATE 2010
REM DISCID 20120214
REM COMMENT "ExactAudioCopy v1.3"
CATALOG 0886977713125
PERFORMER "Various Artists"
TITLE "80s Stop 3"
REM COMPOSER ""
FILE "Various Artists - 80s Stop 3.flac" WAVE
TRACK 01 AUDIO
TITLE "Wake Me Up Before You Go-Go"
PERFORMER "Wham!"
REM COMPOSER ""
ISRC GBBBN0009712
INDEX 01 00:00:00
TRACK 02 AUDIO
TITLE "Whishing Well"
PERFORMER "Terence Trent D'Arby"
REM COMPOSER ""
ISRC GBBBN8700003
INDEX 00 03:50:26
INDEX 01 03:51:26
TRACK 03 AUDIO
TITLE "(Feels Like) Heaven"
PERFORMER "Fiction Factory"
REM COMPOSER ""
ISRC GBBBN8400001
INDEX 00 07:21:60
INDEX 01 07:22:60
TRACK 04 AUDIO
TITLE "Happy Birthday"
PERFORMER "Altered Images"
REM COMPOSER ""
ISRC USSM10030041
INDEX 00 10:52:25
INDEX 01 10:53:25
TRACK 05 AUDIO
TITLE "Goody Two Shoes"
PERFORMER "Adam Ant"
REM COMPOSER ""
ISRC GBBBN0500060
INDEX 00 13:51:31
INDEX 01 13:52:31
TRACK 06 AUDIO
TITLE "Broken Wings"
PERFORMER "Mr. Mister"
REM COMPOSER ""
ISRC USRC18404637
INDEX 00 17:21:50
INDEX 01 17:22:50
TRACK 07 AUDIO
TITLE "Time After Time"
PERFORMER "Cyndi Lauper"
REM COMPOSER ""
ISRC USSM18300847
INDEX 00 21:57:24
INDEX 01 21:58:24
TRACK 08 AUDIO
TITLE "Down Under"
PERFORMER "Men At Work"
REM COMPOSER ""
ISRC USSM18100058
INDEX 00 25:57:24
INDEX 01 25:58:24
TRACK 09 AUDIO
TITLE "Hold Me Now"
PERFORMER "The Thompson Twins"
REM COMPOSER ""
ISRC GBARK8300013
INDEX 00 29:36:30
INDEX 01 29:37:30
TRACK 10 AUDIO
TITLE "It Doesn't Have To Be This Way"
PERFORMER "The Blow Monkeys"
REM COMPOSER ""
ISRC GBARL8700037
INDEX 00 34:20:60
INDEX 01 34:21:60
TRACK 11 AUDIO
TITLE "I Ran"
PERFORMER "A Flock Of Seagulls"
REM COMPOSER ""
ISRC GBAHK0500042
INDEX 00 38:23:02
INDEX 01 38:24:02
TRACK 12 AUDIO
TITLE "99 Red Balloons"
PERFORMER "Nena"
REM COMPOSER ""
ISRC DEE860003002
INDEX 00 42:03:30
INDEX 01 42:04:30
TRACK 13 AUDIO
TITLE "Ghostbusters"
PERFORMER "Ray Parker Junior"
REM COMPOSER ""
ISRC USAR18400117
INDEX 00 45:54:11
INDEX 01 45:55:11
TRACK 14 AUDIO
TITLE "Nothing's Gonna Stop Us Now"
PERFORMER "Starship"
REM COMPOSER ""
ISRC USRC18702968
INDEX 00 49:52:69
INDEX 01 49:53:69
TRACK 15 AUDIO
TITLE "I Come Undone"
PERFORMER "Jennifer Rush"
REM COMPOSER ""
ISRC DEE868700038
INDEX 00 54:18:21
INDEX 01 54:19:21
TRACK 16 AUDIO
TITLE "Japanese Boy"
PERFORMER "Aneka"
REM COMPOSER ""
ISRC GBARL8100014
INDEX 00 58:26:45
INDEX 01 58:27:45
TRACK 17 AUDIO
TITLE "Perfect"
PERFORMER "Fairground Attraction"
REM COMPOSER ""
ISRC GBARL8800011
INDEX 00 62:23:56
INDEX 01 62:24:56
TRACK 18 AUDIO
TITLE "Love And Pride"
PERFORMER "King"
REM COMPOSER ""
ISRC GBBBN8400002
INDEX 00 66:00:30
INDEX 01 66:01:30
TRACK 19 AUDIO
TITLE "My Favourite Waste Of Time"
PERFORMER "Owen Paul"
REM COMPOSER ""
ISRC GBBBM8600006
INDEX 00 69:21:66
INDEX 01 69:22:66
TRACK 20 AUDIO
TITLE "Blue Hat For A Blue Day"
PERFORMER "Nick Heyward"
REM COMPOSER ""
ISRC GBARK8300005
INDEX 00 72:48:52
INDEX 01 72:49:52
 Exact Audio Copy V1.3 from 2. September 2016
EAC extraction logfile from 8. June 2018, 18:42
Various Artists / 80s Stop 3
Used drive : ASUS DRW-24F1ST a Adapter: 1 ID: 1
Read mode : Secure
Utilize accurate stream : Yes
Defeat audio cache : Yes
Make use of C2 pointers : No
Read offset correction : 6
Overread into Lead-In and Lead-Out : No
Fill up missing offset samples with silence : Yes
Delete leading and trailing silent blocks : No
Null samples used in CRC calculations : Yes
Used interface : Native Win32 interface for Win NT & 2000
Used output format : User Defined Encoder
Selected bitrate : 128 kBit/s
Quality : High
Add ID3 tag : No
Command line compressor : C:\Program Files (x86)\Exact Audio Copy\Flac\flac.exe
Additional command line options : -V -8 -T "Genre=%genre%" -T "Artist=%artist%" -T "Title=%title%" -T "Album=%albumtitle%" -T "Date=%year%" -T "Tracknumber=%tracknr%" -T "Comment=%comment%" %source%
TOC of the extracted CD
Track | Start | Length | Start sector | End sector
---------------------------------------------------------
1 | 0:00.00 | 3:51.26 | 0 | 17350
2 | 3:51.26 | 3:31.34 | 17351 | 33209
3 | 7:22.60 | 3:30.40 | 33210 | 48999
4 | 10:53.25 | 2:59.06 | 49000 | 62430
5 | 13:52.31 | 3:30.19 | 62431 | 78199
6 | 17:22.50 | 4:35.49 | 78200 | 98873
7 | 21:58.24 | 4:00.00 | 98874 | 116873
8 | 25:58.24 | 3:39.06 | 116874 | 133304
9 | 29:37.30 | 4:44.30 | 133305 | 154634
10 | 34:21.60 | 4:02.17 | 154635 | 172801
11 | 38:24.02 | 3:40.28 | 172802 | 189329
12 | 42:04.30 | 3:50.56 | 189330 | 206635
13 | 45:55.11 | 3:58.58 | 206636 | 224543
14 | 49:53.69 | 4:25.27 | 224544 | 244445
15 | 54:19.21 | 4:08.24 | 244446 | 263069
16 | 58:27.45 | 3:57.11 | 263070 | 280855
17 | 62:24.56 | 3:36.49 | 280856 | 297104
18 | 66:01.30 | 3:21.36 | 297105 | 312215
19 | 69:22.66 | 3:26.61 | 312216 | 327726
20 | 72:49.52 | 4:01.16 | 327727 | 345817
Range status and errors
Selected range
Filename C:\CD\CD 3\Various Artists - 80s Stop 3.wav
Peak level 100.0 %
Extraction speed 2.9 X
Range quality 100.0 %
Test CRC E8959511
Copy CRC E8959511
Copy OK
No errors occurred
AccurateRip summary
Track 1 accurately ripped (confidence 2) [E1B8DDA7] (AR v2)
Track 2 accurately ripped (confidence 2) [9D0B93A4] (AR v2)
Track 3 accurately ripped (confidence 2) [D36C28C0] (AR v2)
Track 4 accurately ripped (confidence 2) [4C3CEC26] (AR v2)
Track 5 accurately ripped (confidence 2) [242A711D] (AR v2)
Track 6 accurately ripped (confidence 2) [F972EDA9] (AR v2)
Track 7 accurately ripped (confidence 2) [7F8D0A19] (AR v2)
Track 8 accurately ripped (confidence 2) [AA08C07B] (AR v2)
Track 9 accurately ripped (confidence 2) [5792B6A0] (AR v2)
Track 10 accurately ripped (confidence 2) [E210DA8E] (AR v2)
Track 11 accurately ripped (confidence 2) [9148E5CF] (AR v2)
Track 12 accurately ripped (confidence 2) [69B6B871] (AR v2)
Track 13 accurately ripped (confidence 2) [026E3723] (AR v2)
Track 14 accurately ripped (confidence 2) [F5D82DDF] (AR v2)
Track 15 accurately ripped (confidence 2) [611746DE] (AR v2)
Track 16 accurately ripped (confidence 2) [A6DE6628] (AR v2)
Track 17 accurately ripped (confidence 2) [421BAECC] (AR v2)
Track 18 accurately ripped (confidence 2) [9A2843E2] (AR v2)
Track 19 accurately ripped (confidence 2) [774B3014] (AR v2)
Track 20 accurately ripped (confidence 2) [EB7DB147] (AR v2)
All tracks accurately ripped
End of status report
==== Log checksum 24F631653F4D6C770C68ACFFBF25EABEF0356BADF57892E95487FFBEF41B4214 ====
 foobar2000 1.3.13 / Замер динамического диапазона (DR) 1.1.1
Дата отчёта: 2018-06-09 00:08:29
--------------------------------------------------------------------------------
Анализ: Wham! / 80s Stop 3 (1)
Terence Trent D'Arby / 80s Stop 3 (2)
Fiction Factory / 80s Stop 3 (3)
Altered Images / 80s Stop 3 (4)
Adam Ant / 80s Stop 3 (5)
Mr. Mister / 80s Stop 3 (6)
Cyndi Lauper / 80s Stop 3 (7)
Men At Work / 80s Stop 3 (8)
The Thompson Twins / 80s Stop 3 (9)
The Blow Monkeys / 80s Stop 3 (10)
A Flock Of Seagulls / 80s Stop 3 (11)
Nena / 80s Stop 3 (12)
Ray Parker Junior / 80s Stop 3 (13)
Starship / 80s Stop 3 (14)
Jennifer Rush / 80s Stop 3 (15)
Aneka / 80s Stop 3 (16)
Fairground Attraction / 80s Stop 3 (17)
King / 80s Stop 3 (18)
Owen Paul / 80s Stop 3 (19)
Nick Heyward / 80s Stop 3 (20)
--------------------------------------------------------------------------------
DR Пики RMS Продолжительность трека
--------------------------------------------------------------------------------
DR9 0.00 дБ -10.29 дБ 3:51 01-Wake Me Up Before You Go-Go
DR11 0.00 дБ -12.33 дБ 3:31 02-Whishing Well
DR11 0.00 дБ -13.00 дБ 3:31 03-(Feels Like) Heaven
DR9 0.00 дБ -10.16 дБ 2:59 04-Happy Birthday
DR7 -0.97 дБ -8.67 дБ 3:30 05-Goody Two Shoes
DR8 0.00 дБ -9.21 дБ 4:36 06-Broken Wings
DR10 0.00 дБ -12.46 дБ 4:00 07-Time After Time
DR9 -0.97 дБ -11.26 дБ 3:39 08-Down Under
DR8 -0.97 дБ -11.07 дБ 4:44 09-Hold Me Now
DR10 0.00 дБ -11.69 дБ 4:02 10-It Doesn't Have To Be This Way
DR9 0.00 дБ -10.07 дБ 3:40 11-I Ran
DR9 0.00 дБ -11.64 дБ 3:51 12-99 Red Balloons
DR12 0.00 дБ -13.05 дБ 3:59 13-Ghostbusters
DR10 0.00 дБ -11.90 дБ 4:25 14-Nothing's Gonna Stop Us Now
DR12 0.00 дБ -14.02 дБ 4:08 15-I Come Undone
DR9 0.00 дБ -10.14 дБ 3:57 16-Japanese Boy
DR7 -0.98 дБ -10.19 дБ 3:37 17-Perfect
DR10 0.00 дБ -12.18 дБ 3:21 18-Love And Pride
DR12 0.00 дБ -13.76 дБ 3:27 19-My Favourite Waste Of Time
DR9 -0.43 дБ -11.62 дБ 4:01 20-Blue Hat For A Blue Day
--------------------------------------------------------------------------------
Количество треков:20
Реальные значения DR:DR10
Частота:44100 Гц
Каналов:2
Разрядность:16
Битрейт:959 кбит/с
Кодек:FLAC
================================================================================

[1.59 GB] Скачать / Download