(Disco) VA - Bombay Disco: Disco Hits From Hindi Films 1979-1985 - 2014, FLAC (tracks+.cue), lossless - Скачать

Bombay Disco: Disco Hits From Hindi Films 1979-1985
Жанр: Disco
Носитель: CD
Страна-производитель диска (релиза): USA
Год издания: 2014
Издатель (лейбл): Cultures Of Soul Records
Номер по каталогу: COS 008-CD
Аудиокодек: FLAC (*.flac)
Тип рипа: tracks+.cue
Битрейт аудио: lossless
Продолжительность: 01:14:36
Источник (релизер): xbtmusic.org
Наличие сканов в содержимом раздачи: да
Треклист:
01. Usha Uthup - Hari Om Hari (6:25)
02. Bappi Lahiri - Mausam Hai Gaane Ka (5:14)
03. Kishore Kumar-Amit Kumar - Hum To Aap Ke Deewane Hein (7:46)
04. Asha Bhosle - Udi Baba (6:19)
05. Asha Bhosle-Bappi Lahiri - Bugi Bugi (6:21)
06. Asha Bhosle - Bongo Bongo (6:15)
07. Bappi Lahiri - Discotheque Music (2:08)
08. Asha Bhosle - Pyar Ka Imithaan (5:46)
09. Bappi Lahiri-Amit Kumar - Karate (8:31)
10. Kishore Kumar-Lata Mangeshkar - Disco 82 (3:45)
11. Usha Uthup - Main Gul Badan (6:31)
12. Asha Bhosle - Dil Dil Dil Kabhi Dil De Bhi To Do (5:25)
13. Salma Agha-Bappi Lahiri - Jeena Bhi Kya Hai Jeena 02 (4:08)

песни, композиции, скачать, lossless, mp3, торрент, поп, трек, бесплатно, pop, высокое качество, альбом, pop-music, soundtrack, download, torrent, музыка, дискография, альбом, поп-музыка, cd

 Exact Audio Copy V1.1 from 23. June 2015
EAC extraction logfile from 29. March 2016, 18:15
Various Artists / Bombay Disco
Used drive : MATSHITADVD+-RW SW830 Adapter: 1 ID: 0
Read mode : Secure
Utilize accurate stream : Yes
Defeat audio cache : Yes
Make use of C2 pointers : No
Read offset correction : 6
Overread into Lead-In and Lead-Out : No
Fill up missing offset samples with silence : Yes
Delete leading and trailing silent blocks : No
Null samples used in CRC calculations : Yes
Used interface : Native Win32 interface for Win NT & 2000
Gap handling : Appended to previous track
Used output format : User Defined Encoder
Selected bitrate : 896 kBit/s
Quality : High
Add ID3 tag : No
Command line compressor : C:\Program Files (x86)\Exact Audio Copy\Flac\flac.exe
Additional command line options : -8 -V -T "ARTIST=%artist%" -T "TITLE=%title%" -T "ALBUM=%albumtitle%" -T "DATE=%year%" -T "TRACKNUMBER=%tracknr%" -T "TOTALTRACKS=%numtracks%" -T "GENRE=%genre%" -T "ALBUMARTIST=%albumartist%" -T "ALBUM ARTIST=%albumartist%" -T "COMMENT=EAC Secure Mode, Test & Copy, AccurateRip, FLAC -8" %source%
TOC of the extracted CD
Track | Start | Length | Start sector | End sector
---------------------------------------------------------
1 | 0:00.00 | 6:25.32 | 0 | 28906
2 | 6:25.32 | 5:14.16 | 28907 | 52472
3 | 11:39.48 | 7:46.09 | 52473 | 87431
4 | 19:25.57 | 6:18.59 | 87432 | 115840
5 | 25:44.41 | 6:21.21 | 115841 | 144436
6 | 32:05.62 | 6:15.10 | 144437 | 172571
7 | 38:20.72 | 2:08.15 | 172572 | 182186
8 | 40:29.12 | 5:46.20 | 182187 | 208156
9 | 46:15.32 | 8:31.18 | 208157 | 246499
10 | 54:46.50 | 3:44.53 | 246500 | 263352
11 | 58:31.28 | 6:31.10 | 263353 | 292687
12 | 65:02.38 | 5:24.61 | 292688 | 317048
13 | 70:27.24 | 4:08.37 | 317049 | 335685
Track 1
Filename G:\New Rips\Various Artists - Bombay Disco (2014) [FLAC]\01 - Usha Uthup - Hari Om Hari.wav
Pre-gap length 0:00:02.00
Peak level 98.7 %
Extraction speed 4.6 X
Track quality 99.9 %
Test CRC 2FCE63B7
Copy CRC 2FCE63B7
Accurately ripped (confidence 6) [A08AADC2] (AR v2)
Copy OK
Track 2
Filename G:\New Rips\Various Artists - Bombay Disco (2014) [FLAC]\02 - Bappi Lahiri - Mausam Hai Gaane Ka.wav
Peak level 98.8 %
Extraction speed 5.6 X
Track quality 100.0 %
Test CRC FA1BB221
Copy CRC FA1BB221
Accurately ripped (confidence 6) [6B7E76B7] (AR v2)
Copy OK
Track 3
Filename G:\New Rips\Various Artists - Bombay Disco (2014) [FLAC]\03 - Kishore Kumar-Amit Kumar - Hum To Aap Ke Deewane Hein.wav
Peak level 98.8 %
Extraction speed 5.8 X
Track quality 99.9 %
Test CRC BBCFDDED
Copy CRC BBCFDDED
Accurately ripped (confidence 6) [4F7395AD] (AR v2)
Copy OK
Track 4
Filename G:\New Rips\Various Artists - Bombay Disco (2014) [FLAC]\04 - Asha Bhosle - Udi Baba.wav
Peak level 98.8 %
Extraction speed 6.1 X
Track quality 99.9 %
Test CRC 422AEE44
Copy CRC 422AEE44
Accurately ripped (confidence 6) [C4B20F9A] (AR v2)
Copy OK
Track 5
Filename G:\New Rips\Various Artists - Bombay Disco (2014) [FLAC]\05 - Asha Bhosle-Bappi Lahiri - Bugi Bugi.wav
Peak level 98.8 %
Extraction speed 7.5 X
Track quality 100.0 %
Test CRC 05ABF93C
Copy CRC 05ABF93C
Accurately ripped (confidence 6) [C1B13800] (AR v2)
Copy OK
Track 6
Filename G:\New Rips\Various Artists - Bombay Disco (2014) [FLAC]\06 - Asha Bhosle - Bongo Bongo.wav
Peak level 98.8 %
Extraction speed 6.9 X
Track quality 99.9 %
Test CRC A60BA9ED
Copy CRC A60BA9ED
Accurately ripped (confidence 6) [7025BAB4] (AR v2)
Copy OK
Track 7
Filename G:\New Rips\Various Artists - Bombay Disco (2014) [FLAC]\07 - Bappi Lahiri - Discotheque Music.wav
Peak level 88.1 %
Extraction speed 6.9 X
Track quality 100.0 %
Test CRC 4DC899DD
Copy CRC 4DC899DD
Accurately ripped (confidence 6) [9E51C0BB] (AR v2)
Copy OK
Track 8
Filename G:\New Rips\Various Artists - Bombay Disco (2014) [FLAC]\08 - Asha Bhosle - Pyar Ka Imithaan.wav
Peak level 98.8 %
Extraction speed 7.2 X
Track quality 99.9 %
Test CRC 9DB4D762
Copy CRC 9DB4D762
Accurately ripped (confidence 6) [6167A4B9] (AR v2)
Copy OK
Track 9
Filename G:\New Rips\Various Artists - Bombay Disco (2014) [FLAC]\09 - Bappi Lahiri-Amit Kumar - Karate.wav
Peak level 98.8 %
Extraction speed 9.0 X
Track quality 100.0 %
Test CRC 56B3D679
Copy CRC 56B3D679
Accurately ripped (confidence 6) [C66934E1] (AR v2)
Copy OK
Track 10
Filename G:\New Rips\Various Artists - Bombay Disco (2014) [FLAC]\10 - Kishore Kumar-Lata Mangeshkar - Disco 82.wav
Peak level 98.8 %
Extraction speed 8.6 X
Track quality 100.0 %
Test CRC 38461C9F
Copy CRC 38461C9F
Accurately ripped (confidence 6) [50F75E52] (AR v2)
Copy OK
Track 11
Filename G:\New Rips\Various Artists - Bombay Disco (2014) [FLAC]\11 - Usha Uthup - Main Gul Badan.wav
Peak level 98.8 %
Extraction speed 9.5 X
Track quality 100.0 %
Test CRC C7EA48B3
Copy CRC C7EA48B3
Accurately ripped (confidence 6) [0B40F882] (AR v2)
Copy OK
Track 12
Filename G:\New Rips\Various Artists - Bombay Disco (2014) [FLAC]\12 - Asha Bhosle - Dil Dil Dil Kabhi Dil De Bhi To Do.wav
Peak level 98.7 %
Extraction speed 9.7 X
Track quality 100.0 %
Test CRC 71490FEC
Copy CRC 71490FEC
Accurately ripped (confidence 6) [C60D31E1] (AR v2)
Copy OK
Track 13
Filename G:\New Rips\Various Artists - Bombay Disco (2014) [FLAC]\13 - Salma Agha-Bappi Lahiri - Jeena Bhi Kya Hai Jeena 02.wav
Peak level 98.8 %
Extraction speed 9.5 X
Track quality 100.0 %
Test CRC D61B240E
Copy CRC D61B240E
Accurately ripped (confidence 6) [594F57B8] (AR v2)
Copy OK
All tracks accurately ripped
No errors occurred
End of status report
---- CUETools DB Plugin V2.1.6
[CTDB TOCID: W.C_uUpWN47nKdwzehlaBMssxjg-] found
Submit result: W.C_uUpWN47nKdwzehlaBMssxjg- has been confirmed
Track | CTDB Status
1 | (5/5) Accurately ripped
2 | (5/5) Accurately ripped
3 | (5/5) Accurately ripped
4 | (5/5) Accurately ripped
5 | (5/5) Accurately ripped
6 | (5/5) Accurately ripped
7 | (5/5) Accurately ripped
8 | (5/5) Accurately ripped
9 | (5/5) Accurately ripped
10 | (5/5) Accurately ripped
11 | (5/5) Accurately ripped
12 | (5/5) Accurately ripped
13 | (5/5) Accurately ripped
==== Log checksum 577B4E44AE0D8BC04EE70961DF7713EB989593A3048C62E173EA27232950555D ====
 REM GENRE World
REM DATE 2014
REM DISCID B8117B0D
REM COMMENT "ExactAudioCopy v1.1"
PERFORMER "Various Artists"
TITLE "Bombay Disco"
FILE "01 - Usha Uthup - Hari Om Hari.flac" WAVE
TRACK 01 AUDIO
TITLE "Hari Om Hari"
PERFORMER "Usha Uthup"
INDEX 01 00:00:00
FILE "02 - Bappi Lahiri - Mausam Hai Gaane Ka.flac" WAVE
TRACK 02 AUDIO
TITLE "Mausam Hai Gaane Ka"
PERFORMER "Bappi Lahiri"
INDEX 01 00:00:00
FILE "03 - Kishore Kumar-Amit Kumar - Hum To Aap Ke Deewane Hein.flac" WAVE
TRACK 03 AUDIO
TITLE "Hum To Aap Ke Deewane Hein"
PERFORMER "Kishore Kumar-Amit Kumar"
INDEX 01 00:00:00
FILE "04 - Asha Bhosle - Udi Baba.flac" WAVE
TRACK 04 AUDIO
TITLE "Udi Baba"
PERFORMER "Asha Bhosle"
INDEX 01 00:00:00
FILE "05 - Asha Bhosle-Bappi Lahiri - Bugi Bugi.flac" WAVE
TRACK 05 AUDIO
TITLE "Bugi Bugi"
PERFORMER "Asha Bhosle-Bappi Lahiri"
INDEX 01 00:00:00
FILE "06 - Asha Bhosle - Bongo Bongo.flac" WAVE
TRACK 06 AUDIO
TITLE "Bongo Bongo"
PERFORMER "Asha Bhosle"
INDEX 01 00:00:00
FILE "07 - Bappi Lahiri - Discotheque Music.flac" WAVE
TRACK 07 AUDIO
TITLE "Discotheque Music"
PERFORMER "Bappi Lahiri"
INDEX 01 00:00:00
FILE "08 - Asha Bhosle - Pyar Ka Imithaan.flac" WAVE
TRACK 08 AUDIO
TITLE "Pyar Ka Imithaan"
PERFORMER "Asha Bhosle"
INDEX 01 00:00:00
FILE "09 - Bappi Lahiri-Amit Kumar - Karate.flac" WAVE
TRACK 09 AUDIO
TITLE "Karate"
PERFORMER "Bappi Lahiri-Amit Kumar"
INDEX 01 00:00:00
FILE "10 - Kishore Kumar-Lata Mangeshkar - Disco 82.flac" WAVE
TRACK 10 AUDIO
TITLE "Disco 82"
PERFORMER "Kishore Kumar-Lata Mangeshkar"
INDEX 01 00:00:00
FILE "11 - Usha Uthup - Main Gul Badan.flac" WAVE
TRACK 11 AUDIO
TITLE "Main Gul Badan"
PERFORMER "Usha Uthup"
INDEX 01 00:00:00
FILE "12 - Asha Bhosle - Dil Dil Dil Kabhi Dil De Bhi To Do.flac" WAVE
TRACK 12 AUDIO
TITLE "Dil Dil Dil Kabhi Dil De Bhi To Do"
PERFORMER "Asha Bhosle"
INDEX 01 00:00:00
FILE "13 - Salma Agha-Bappi Lahiri - Jeena Bhi Kya Hai Jeena 02.flac" WAVE
TRACK 13 AUDIO
TITLE "Jeena Bhi Kya Hai Jeena 02"
PERFORMER "Salma Agha-Bappi Lahiri"
INDEX 01 00:00:00

[403.9 MB] Скачать / Download