(Disco) VA - Various Club Hits From The 70s To The 80s (3 CD) - 2000, FLAC (image+.cue), lossless - Скачать

Жанр: Disco
Носитель: CD
Страна-производитель диска: Germany
Год издания: 2000
Издатель (лейбл): Baur Music Production
Номер по каталогу: 38004-2
Страна: Europa
Аудиокодек: FLAC (*.flac)
Тип рипа: image+.cue
Битрейт аудио: lossless
Продолжительность:
Источник (релизер): pontyra
Наличие сканов в содержимом раздачи: Да
Размер:1.35 GB
Раздача перезалита по просьбе Модератора 15.02.2014

трек, высокое качество, музыка, бесплатно, альбом, lossless, mp3, песни, поп, скачать, download, альбом, pop, торрент, pop-music, дискография, поп-музыка, torrent, soundtrack, композиции, cd

Various Club Hits From The 70s To The 80s -3 CD CD.1
[02:53] 01. F R David - Words
[05:02] 02. Toni Esposito - Kalimba De Luna
[04:15] 03. Gazebo - Dolce Vita
[04:03] 04. Valery Dore - The Night
[04:45] 05. Miko Mission - How Old Are You
[03:33] 06. Carrara - Disco King
[03:51] 07. Belen Thomas - Y Mi Banda Toca El Rock
[03:52] 08. Anthony & Rose - Love Is Everywhere
[03:17] 09. David Christie - Saddle Up
[04:12] 10. Real Thing - She's A Groovy Freak
[04:19] 11. Pino D'Angio - Ma Quale Idea (Dance)
[03:54] 12. Kano - Another Life
[04:26] 13. Novecento - I Need Love
[04:03] 14. Jessica Blue - The Dark Of Light
[05:18] 15. Miko Mission - Around My Dream
[05:26] 16. Albert One - Heart On Fire
Various Club Hits From The 70s To The 80s -3 CD CD.2
[03:32] 01. Limahl - Never Ending Story
[04:49] 02. Gazebo - I Like Chopin
[03:40] 03. Novecento - Movin' On
[03:42] 04. Cruisin' Gang - Affair A Gogo
[03:58] 05. Toni Esposito - Papa Chico
[04:00] 06. Osibisa - Sunshine Day
[05:00] 07. Flirts - Passion
[04:39] 08. Divine - Shoot Your Shot
[03:41] 09. Savoire Faire & Uptown Express - Let's Rock Break And Boogie
[03:20] 10. Sylvester feat Patrick Cowley - Menergy
[03:46] 11. Jock Hattle - Yes No Family
[03:44] 12. Casco - Cybernetic Love
[04:03] 13. Song Family - Your Love
[03:55] 14. Sabrina - Boys (Sommertime Love)
[03:38] 15. Albert One - Turbo Diesel
[03:48] 16. Evelyn Thomas - High Energy
Various Club Hits From The 70s To The 80s -3 CD CD.3
[04:08] 01. Gloria Gaynor - Never Can Say Goodbye
[03:20] 02. The Real Thing - You To Me Are Everything
[03:27] 03. Melanie & The Doobie Brothers - Long Train Running
[05:24] 04. Hot Chocolate - You Sexy Thing
[02:51] 05. Rose Royce - Car Wash
[06:13] 06. Sister Sledge - He's The Greatest Dancer
[03:43] 07. Timmy Thomas - Why Can't We Live Together
[03:04] 08. KC & The Sunshine Band - That's The Way I Like It
[03:56] 09. Curtis Mayfield - Move On Up
[03:51] 10. KC & The Sunshine Band - Please Don't Go
[04:26] 11. Barry White & His Orchestra - Under The Influence Of Love
[03:14] 12. George McCrae - Rock You Baby
[03:00] 13. Ike & Tina Turner - Nutbush City Limits
[04:31] 14. Rose Royce - Wishing On A Star
[02:59] 15. The Three Degrees - When Will I See You Again
[03:12] 16. Anita Ward - Ring My Bell
[02:53] 01. F R David - Words
[05:02] 02. Toni Esposito - Kalimba De Luna
[04:15] 03. Gazebo - Dolce Vita
[04:03] 04. Valery Dore - The Night
[04:45] 05. Miko Mission - How Old Are You
[03:33] 06. Carrara - Disco King
[03:51] 07. Belen Thomas - Y Mi Banda Toca El Rock
[03:52] 08. Anthony & Rose - Love Is Everywhere
[03:17] 09. David Christie - Saddle Up
[04:12] 10. Real Thing - She's A Groovy Freak
[04:19] 11. Pino D'Angio - Ma Quale Idea (Dance)
[03:54] 12. Kano - Another Life
[04:26] 13. Novecento - I Need Love
[04:03] 14. Jessica Blue - The Dark Of Light
[05:18] 15. Miko Mission - Around My Dream
[05:26] 16. Albert One - Heart On Fire
[03:32] 01. Limahl - Never Ending Story
[04:49] 02. Gazebo - I Like Chopin
[03:40] 03. Novecento - Movin' On
[03:42] 04. Cruisin' Gang - Affair A Gogo
[03:58] 05. Toni Esposito - Papa Chico
[04:00] 06. Osibisa - Sunshine Day
[05:00] 07. Flirts - Passion
[04:39] 08. Divine - Shoot Your Shot
[03:41] 09. Savoire Faire & Uptown Express - Let's Rock Break And Boogie
[03:20] 10. Sylvester feat Patrick Cowley - Menergy
[03:46] 11. Jock Hattle - Yes No Family
[03:44] 12. Casco - Cybernetic Love
[04:03] 13. Song Family - Your Love
[03:55] 14. Sabrina - Boys (Sommertime Love)
[03:38] 15. Albert One - Turbo Diesel
[03:48] 16. Evelyn Thomas - High Energy
[04:08] 01. Gloria Gaynor - Never Can Say Goodbye
[03:20] 02. The Real Thing - You To Me Are Everything
[03:27] 03. Melanie & The Doobie Brothers - Long Train Running
[05:24] 04. Hot Chocolate - You Sexy Thing
[02:51] 05. Rose Royce - Car Wash
[06:13] 06. Sister Sledge - He's The Greatest Dancer
[03:43] 07. Timmy Thomas - Why Can't We Live Together
[03:04] 08. KC & The Sunshine Band - That's The Way I Like It
[03:56] 09. Curtis Mayfield - Move On Up
[03:51] 10. KC & The Sunshine Band - Please Don't Go
[04:26] 11. Barry White & His Orchestra - Under The Influence Of Love
[03:14] 12. George McCrae - Rock You Baby
[03:00] 13. Ike & Tina Turner - Nutbush City Limits
[04:31] 14. Rose Royce - Wishing On A Star
[02:59] 15. The Three Degrees - When Will I See You Again
[03:12] 16. Anita Ward - Ring My Bell
Various Club Hits From The 70s To The 80s -3 CD CD.1
 Exact Audio Copy V1.0 beta 3 from 29. August 2011
Отчёт EAC об извлечении, выполненном 15. февраля 2014, 11:01
Various / The Hits Of The 80ies Vol.1.
Дисковод: hp CDDVDW SN-208DB Adapter: 1 ID: 0
Режим чтения : Достоверность
Использование точного потока : Да
Отключение кэша аудио : Да
Использование указателей C2 : Нет
Коррекция смещения при чтении : 6
Способность читать области Lead-in и Lead-out : Нет
Заполнение пропущенных сэмплов тишиной : Да
Удаление блоков с тишиной в начале и конце : Нет
При вычислениях CRC использовались нулевые сэмплы : Да
Интерфейс : Встроенный Win32-интерфейс для Win NT/2000
Выходной формат : Пользовательский кодировщик
Выбранный битрейт : 1024 kBit/s
Качество : Высокий
Добавление ID3-тега : Нет
Утилита сжатия : C:\Program Files (x86)\Exact Audio Copy\Flac\flac.exe
Дополнительные параметры : : -V -8 -T "Genre=%genre%" -T "Artist=%artist%" -T "Title=%title%" -T "Album=%albumtitle%" -T "Date=%year%" -T "Tracknumber=%tracknr%" -T "Comment=%comment%" %source%
TOC извлечённого CD
Трек | Старт | Длительность | Начальный сектор | Конечный сектор
---------------------------------------------------------------------
1 | 0:00.00 | 2:53.22 | 0 | 12996
2 | 2:53.22 | 5:02.00 | 12997 | 35646
3 | 7:55.22 | 4:15.53 | 35647 | 54824
4 | 12:11.00 | 4:03.50 | 54825 | 73099
5 | 16:14.50 | 4:45.47 | 73100 | 94521
6 | 21:00.22 | 3:33.38 | 94522 | 110534
7 | 24:33.60 | 3:51.65 | 110535 | 127924
8 | 28:25.50 | 3:52.00 | 127925 | 145324
9 | 32:17.50 | 3:18.00 | 145325 | 160174
10 | 35:35.50 | 4:12.00 | 160175 | 179074
11 | 39:47.50 | 4:19.10 | 179075 | 198509
12 | 44:06.60 | 3:54.65 | 198510 | 216124
13 | 48:01.50 | 4:26.25 | 216125 | 236099
14 | 52:28.00 | 4:03.50 | 236100 | 254374
15 | 56:31.50 | 5:18.10 | 254375 | 278234
16 | 61:49.60 | 5:26.52 | 278235 | 302736
Характеристики диапазона извлечения и сообщения об ошибках
Выбранный диапазон
Имя файла C:\Club Hits From The 70s To The 80s -3 CD\1\Various - The Hits Of The 80ies Vol.1..wav
Пиковый уровень 99.9 %
Скорость извлечения 3.9 X
Качество диапазона 99.9 %
CRC теста EB37EDE3
CRC копии EB37EDE3
Копирование... OK
Ошибок не произошло
Конец отчёта
==== Контрольная сумма отчёта 5ED2895902A81C453B0173DAA8E217CFD64C0540AA1859FE05525979F5E6FC19 ====
Various Club Hits From The 70s To The 80s -3 CD CD.2
 Exact Audio Copy V1.0 beta 3 from 29. August 2011
Exact Audio Copy V1.0 beta 3 from 29. August 2011
Отчёт EAC об извлечении, выполненном 15. февраля 2014, 11:57
Various / The Hits Of The 80ies Vol.2
Дисковод: hp CDDVDW SN-208DB Adapter: 1 ID: 0
Режим чтения : Достоверность
Использование точного потока : Да
Отключение кэша аудио : Да
Использование указателей C2 : Нет
Коррекция смещения при чтении : 6
Способность читать области Lead-in и Lead-out : Нет
Заполнение пропущенных сэмплов тишиной : Да
Удаление блоков с тишиной в начале и конце : Нет
При вычислениях CRC использовались нулевые сэмплы : Да
Интерфейс : Встроенный Win32-интерфейс для Win NT/2000
Выходной формат : Пользовательский кодировщик
Выбранный битрейт : 1024 kBit/s
Качество : Высокий
Добавление ID3-тега : Нет
Утилита сжатия : C:\Program Files (x86)\Exact Audio Copy\Flac\flac.exe
Дополнительные параметры : : -V -8 -T "Genre=%genre%" -T "Artist=%artist%" -T "Title=%title%" -T "Album=%albumtitle%" -T "Date=%year%" -T "Tracknumber=%tracknr%" -T "Comment=%comment%" %source%
TOC извлечённого CD
Трек | Старт | Длительность | Начальный сектор | Конечный сектор
---------------------------------------------------------------------
1 | 0:00.00 | 3:32.00 | 0 | 15899
2 | 3:32.00 | 4:49.00 | 15900 | 37574
3 | 8:21.00 | 3:40.00 | 37575 | 54074
4 | 12:01.00 | 3:42.00 | 54075 | 70724
5 | 15:43.00 | 3:58.00 | 70725 | 88574
6 | 19:41.00 | 4:00.00 | 88575 | 106574
7 | 23:41.00 | 5:00.10 | 106575 | 129084
8 | 28:41.10 | 4:39.65 | 129085 | 150074
9 | 33:21.00 | 3:41.10 | 150075 | 166659
10 | 37:02.10 | 3:20.65 | 166660 | 181724
11 | 40:23.00 | 3:46.00 | 181725 | 198674
12 | 44:09.00 | 3:44.00 | 198675 | 215474
13 | 47:53.00 | 4:03.00 | 215475 | 233699
14 | 51:56.00 | 3:55.00 | 233700 | 251324
15 | 55:51.00 | 3:38.00 | 251325 | 267674
16 | 59:29.00 | 3:48.52 | 267675 | 284826
Характеристики диапазона извлечения и сообщения об ошибках
Выбранный диапазон
Имя файла C:\Club Hits From The 70s To The 80s -3 CD\2\Various - The Hits Of The 80ies Vol.2.wav
Пиковый уровень 99.9 %
Скорость извлечения 3.9 X
Качество диапазона 100.0 %
CRC теста 0CA84A01
CRC копии 0CA84A01
Копирование... OK
Ошибок не произошло
Конец отчёта
==== Контрольная сумма отчёта B794E943848877E4A8BB001F95EF7D14563E4DA63E3EA75E381A2B34F4616827 ====
Various Club Hits From The 70s To The 80s -3 CD CD.3
 Exact Audio Copy V1.0 beta 3 from 29. August 2011
Отчёт EAC об извлечении, выполненном 15. февраля 2014, 13:06
Various / The Hits Of The 70ies Vol.3
Дисковод: hp CDDVDW SN-208DB Adapter: 1 ID: 0
Режим чтения : Достоверность
Использование точного потока : Да
Отключение кэша аудио : Да
Использование указателей C2 : Нет
Коррекция смещения при чтении : 6
Способность читать области Lead-in и Lead-out : Нет
Заполнение пропущенных сэмплов тишиной : Да
Удаление блоков с тишиной в начале и конце : Нет
При вычислениях CRC использовались нулевые сэмплы : Да
Интерфейс : Встроенный Win32-интерфейс для Win NT/2000
Выходной формат : Пользовательский кодировщик
Выбранный битрейт : 1024 kBit/s
Качество : Высокий
Добавление ID3-тега : Нет
Утилита сжатия : C:\Program Files (x86)\Exact Audio Copy\Flac\flac.exe
Дополнительные параметры : : -V -8 -T "Genre=%genre%" -T "Artist=%artist%" -T "Title=%title%" -T "Album=%albumtitle%" -T "Date=%year%" -T "Tracknumber=%tracknr%" -T "Comment=%comment%" %source%
TOC извлечённого CD
Трек | Старт | Длительность | Начальный сектор | Конечный сектор
---------------------------------------------------------------------
1 | 0:00.00 | 4:08.31 | 0 | 18630
2 | 4:08.31 | 3:20.74 | 18631 | 33704
3 | 7:29.30 | 3:27.47 | 33705 | 49276
4 | 10:57.02 | 5:24.68 | 49277 | 73644
5 | 16:21.70 | 2:51.68 | 73645 | 86537
6 | 19:13.63 | 6:13.41 | 86538 | 114553
7 | 25:27.29 | 3:43.60 | 114554 | 131338
8 | 29:11.14 | 3:04.27 | 131339 | 145165
9 | 32:15.41 | 3:56.40 | 145166 | 162905
10 | 36:12.06 | 3:51.50 | 162906 | 180280
11 | 40:03.56 | 4:26.47 | 180281 | 200277
12 | 44:30.28 | 3:14.63 | 200278 | 214890
13 | 47:45.16 | 3:00.23 | 214891 | 228413
14 | 50:45.39 | 4:31.06 | 228414 | 248744
15 | 55:16.45 | 2:59.10 | 248745 | 262179
16 | 58:15.55 | 3:12.22 | 262180 | 276601
Характеристики диапазона извлечения и сообщения об ошибках
Выбранный диапазон
Имя файла C:\Club Hits From The 70s To The 80s -3 CD\3\Various - The Hits Of The 70ies Vol.3.wav
Пиковый уровень 100.0 %
Скорость извлечения 3.8 X
Качество диапазона 100.0 %
CRC теста 9B3FD161
CRC копии 9B3FD161
Копирование... OK
Ошибок не произошло
Конец отчёта
==== Контрольная сумма отчёта B3227DE553CA482D835E65E9FEE4661C7933C3CE29981FC50456DE03B3C5A99B ====
 Exact Audio Copy V1.0 beta 3 from 29. August 2011
Отчёт EAC об извлечении, выполненном 15. февраля 2014, 11:01
Various / The Hits Of The 80ies Vol.1.
Дисковод: hp CDDVDW SN-208DB Adapter: 1 ID: 0
Режим чтения : Достоверность
Использование точного потока : Да
Отключение кэша аудио : Да
Использование указателей C2 : Нет
Коррекция смещения при чтении : 6
Способность читать области Lead-in и Lead-out : Нет
Заполнение пропущенных сэмплов тишиной : Да
Удаление блоков с тишиной в начале и конце : Нет
При вычислениях CRC использовались нулевые сэмплы : Да
Интерфейс : Встроенный Win32-интерфейс для Win NT/2000
Выходной формат : Пользовательский кодировщик
Выбранный битрейт : 1024 kBit/s
Качество : Высокий
Добавление ID3-тега : Нет
Утилита сжатия : C:\Program Files (x86)\Exact Audio Copy\Flac\flac.exe
Дополнительные параметры : : -V -8 -T "Genre=%genre%" -T "Artist=%artist%" -T "Title=%title%" -T "Album=%albumtitle%" -T "Date=%year%" -T "Tracknumber=%tracknr%" -T "Comment=%comment%" %source%
TOC извлечённого CD
Трек | Старт | Длительность | Начальный сектор | Конечный сектор
---------------------------------------------------------------------
1 | 0:00.00 | 2:53.22 | 0 | 12996
2 | 2:53.22 | 5:02.00 | 12997 | 35646
3 | 7:55.22 | 4:15.53 | 35647 | 54824
4 | 12:11.00 | 4:03.50 | 54825 | 73099
5 | 16:14.50 | 4:45.47 | 73100 | 94521
6 | 21:00.22 | 3:33.38 | 94522 | 110534
7 | 24:33.60 | 3:51.65 | 110535 | 127924
8 | 28:25.50 | 3:52.00 | 127925 | 145324
9 | 32:17.50 | 3:18.00 | 145325 | 160174
10 | 35:35.50 | 4:12.00 | 160175 | 179074
11 | 39:47.50 | 4:19.10 | 179075 | 198509
12 | 44:06.60 | 3:54.65 | 198510 | 216124
13 | 48:01.50 | 4:26.25 | 216125 | 236099
14 | 52:28.00 | 4:03.50 | 236100 | 254374
15 | 56:31.50 | 5:18.10 | 254375 | 278234
16 | 61:49.60 | 5:26.52 | 278235 | 302736
Характеристики диапазона извлечения и сообщения об ошибках
Выбранный диапазон
Имя файла C:\Club Hits From The 70s To The 80s -3 CD\1\Various - The Hits Of The 80ies Vol.1..wav
Пиковый уровень 99.9 %
Скорость извлечения 3.9 X
Качество диапазона 99.9 %
CRC теста EB37EDE3
CRC копии EB37EDE3
Копирование... OK
Ошибок не произошло
Конец отчёта
==== Контрольная сумма отчёта 5ED2895902A81C453B0173DAA8E217CFD64C0540AA1859FE05525979F5E6FC19 ====
 Exact Audio Copy V1.0 beta 3 from 29. August 2011
Exact Audio Copy V1.0 beta 3 from 29. August 2011
Отчёт EAC об извлечении, выполненном 15. февраля 2014, 11:57
Various / The Hits Of The 80ies Vol.2
Дисковод: hp CDDVDW SN-208DB Adapter: 1 ID: 0
Режим чтения : Достоверность
Использование точного потока : Да
Отключение кэша аудио : Да
Использование указателей C2 : Нет
Коррекция смещения при чтении : 6
Способность читать области Lead-in и Lead-out : Нет
Заполнение пропущенных сэмплов тишиной : Да
Удаление блоков с тишиной в начале и конце : Нет
При вычислениях CRC использовались нулевые сэмплы : Да
Интерфейс : Встроенный Win32-интерфейс для Win NT/2000
Выходной формат : Пользовательский кодировщик
Выбранный битрейт : 1024 kBit/s
Качество : Высокий
Добавление ID3-тега : Нет
Утилита сжатия : C:\Program Files (x86)\Exact Audio Copy\Flac\flac.exe
Дополнительные параметры : : -V -8 -T "Genre=%genre%" -T "Artist=%artist%" -T "Title=%title%" -T "Album=%albumtitle%" -T "Date=%year%" -T "Tracknumber=%tracknr%" -T "Comment=%comment%" %source%
TOC извлечённого CD
Трек | Старт | Длительность | Начальный сектор | Конечный сектор
---------------------------------------------------------------------
1 | 0:00.00 | 3:32.00 | 0 | 15899
2 | 3:32.00 | 4:49.00 | 15900 | 37574
3 | 8:21.00 | 3:40.00 | 37575 | 54074
4 | 12:01.00 | 3:42.00 | 54075 | 70724
5 | 15:43.00 | 3:58.00 | 70725 | 88574
6 | 19:41.00 | 4:00.00 | 88575 | 106574
7 | 23:41.00 | 5:00.10 | 106575 | 129084
8 | 28:41.10 | 4:39.65 | 129085 | 150074
9 | 33:21.00 | 3:41.10 | 150075 | 166659
10 | 37:02.10 | 3:20.65 | 166660 | 181724
11 | 40:23.00 | 3:46.00 | 181725 | 198674
12 | 44:09.00 | 3:44.00 | 198675 | 215474
13 | 47:53.00 | 4:03.00 | 215475 | 233699
14 | 51:56.00 | 3:55.00 | 233700 | 251324
15 | 55:51.00 | 3:38.00 | 251325 | 267674
16 | 59:29.00 | 3:48.52 | 267675 | 284826
Характеристики диапазона извлечения и сообщения об ошибках
Выбранный диапазон
Имя файла C:\Club Hits From The 70s To The 80s -3 CD\2\Various - The Hits Of The 80ies Vol.2.wav
Пиковый уровень 99.9 %
Скорость извлечения 3.9 X
Качество диапазона 100.0 %
CRC теста 0CA84A01
CRC копии 0CA84A01
Копирование... OK
Ошибок не произошло
Конец отчёта
==== Контрольная сумма отчёта B794E943848877E4A8BB001F95EF7D14563E4DA63E3EA75E381A2B34F4616827 ====
 Exact Audio Copy V1.0 beta 3 from 29. August 2011
Отчёт EAC об извлечении, выполненном 15. февраля 2014, 13:06
Various / The Hits Of The 70ies Vol.3
Дисковод: hp CDDVDW SN-208DB Adapter: 1 ID: 0
Режим чтения : Достоверность
Использование точного потока : Да
Отключение кэша аудио : Да
Использование указателей C2 : Нет
Коррекция смещения при чтении : 6
Способность читать области Lead-in и Lead-out : Нет
Заполнение пропущенных сэмплов тишиной : Да
Удаление блоков с тишиной в начале и конце : Нет
При вычислениях CRC использовались нулевые сэмплы : Да
Интерфейс : Встроенный Win32-интерфейс для Win NT/2000
Выходной формат : Пользовательский кодировщик
Выбранный битрейт : 1024 kBit/s
Качество : Высокий
Добавление ID3-тега : Нет
Утилита сжатия : C:\Program Files (x86)\Exact Audio Copy\Flac\flac.exe
Дополнительные параметры : : -V -8 -T "Genre=%genre%" -T "Artist=%artist%" -T "Title=%title%" -T "Album=%albumtitle%" -T "Date=%year%" -T "Tracknumber=%tracknr%" -T "Comment=%comment%" %source%
TOC извлечённого CD
Трек | Старт | Длительность | Начальный сектор | Конечный сектор
---------------------------------------------------------------------
1 | 0:00.00 | 4:08.31 | 0 | 18630
2 | 4:08.31 | 3:20.74 | 18631 | 33704
3 | 7:29.30 | 3:27.47 | 33705 | 49276
4 | 10:57.02 | 5:24.68 | 49277 | 73644
5 | 16:21.70 | 2:51.68 | 73645 | 86537
6 | 19:13.63 | 6:13.41 | 86538 | 114553
7 | 25:27.29 | 3:43.60 | 114554 | 131338
8 | 29:11.14 | 3:04.27 | 131339 | 145165
9 | 32:15.41 | 3:56.40 | 145166 | 162905
10 | 36:12.06 | 3:51.50 | 162906 | 180280
11 | 40:03.56 | 4:26.47 | 180281 | 200277
12 | 44:30.28 | 3:14.63 | 200278 | 214890
13 | 47:45.16 | 3:00.23 | 214891 | 228413
14 | 50:45.39 | 4:31.06 | 228414 | 248744
15 | 55:16.45 | 2:59.10 | 248745 | 262179
16 | 58:15.55 | 3:12.22 | 262180 | 276601
Характеристики диапазона извлечения и сообщения об ошибках
Выбранный диапазон
Имя файла C:\Club Hits From The 70s To The 80s -3 CD\3\Various - The Hits Of The 70ies Vol.3.wav
Пиковый уровень 100.0 %
Скорость извлечения 3.8 X
Качество диапазона 100.0 %
CRC теста 9B3FD161
CRC копии 9B3FD161
Копирование... OK
Ошибок не произошло
Конец отчёта
==== Контрольная сумма отчёта B3227DE553CA482D835E65E9FEE4661C7933C3CE29981FC50456DE03B3C5A99B ====
Various Club Hits From The 70s To The 80s -3 CD CD.1
AUDIOCHECKER v2.0 beta (build 457) - by Dester - [email protected]
~~~~~~~~~~~~~~~~~~~~~~~~~~~~~~~~~~
Started at: Sunday, 09. 02. 2014. - 0:45.16
1 file found
1 -===- C:\Club Hits From The 70s To The 80s -3 CD\CD.1\Various - The Hits Of The 80ies Vol.1..flac
Extracted successfully
Conclusion: this track is CDDA with probability 100%
Tempfile successfully deleted.
Finished at: Sunday, 09. 02. 2014. - 0:49.01 (operation time: 0:03.45)
Various Club Hits From The 70s To The 80s -3 CD CD.2
AUDIOCHECKER v2.0 beta (build 457) - by Dester - [email protected]
~~~~~~~~~~~~~~~~~~~~~~~~~~~~~~~~~~
Started at: Sunday, 09. 02. 2014. - 0:20.34
1 file found
1 -===- C:\Club Hits From The 70s To The 80s -3 CD\CD.2\Various - The Hits Of The 80ies Vol.2.flac
Extracted successfully
Conclusion: this track is CDDA with probability 100%
Tempfile successfully deleted.
Finished at: Sunday, 09. 02. 2014. - 0:24.02 (operation time: 0:03.28)
Various Club Hits From The 70s To The 80s -3 CD CD.3
UDIOCHECKER v2.0 beta (build 457) - by Dester - [email protected]
~~~~~~~~~~~~~~~~~~~~~~~~~~~~~~~~~~
Started at: Sunday, 09. 02. 2014. - 1:20.14
1 file found
1 -===- C:\Club Hits From The 70s To The 80s -3 CD\CD.3\Various - The Hits Of The 70ies Vol.3.flac
Extracted successfully
Conclusion: this track is CDDA with probability 100%
Tempfile successfully deleted.
Finished at: Sunday, 09. 02. 2014. - 1:23.15 (operation time: 0:03.01)
AUDIOCHECKER v2.0 beta (build 457) - by Dester - [email protected]
~~~~~~~~~~~~~~~~~~~~~~~~~~~~~~~~~~
Started at: Sunday, 09. 02. 2014. - 0:45.16
1 file found
1 -===- C:\Club Hits From The 70s To The 80s -3 CD\CD.1\Various - The Hits Of The 80ies Vol.1..flac
Extracted successfully
Conclusion: this track is CDDA with probability 100%
Tempfile successfully deleted.
Finished at: Sunday, 09. 02. 2014. - 0:49.01 (operation time: 0:03.45)
AUDIOCHECKER v2.0 beta (build 457) - by Dester - [email protected]
~~~~~~~~~~~~~~~~~~~~~~~~~~~~~~~~~~
Started at: Sunday, 09. 02. 2014. - 0:20.34
1 file found
1 -===- C:\Club Hits From The 70s To The 80s -3 CD\CD.2\Various - The Hits Of The 80ies Vol.2.flac
Extracted successfully
Conclusion: this track is CDDA with probability 100%
Tempfile successfully deleted.
Finished at: Sunday, 09. 02. 2014. - 0:24.02 (operation time: 0:03.28)
UDIOCHECKER v2.0 beta (build 457) - by Dester - [email protected]
~~~~~~~~~~~~~~~~~~~~~~~~~~~~~~~~~~
Started at: Sunday, 09. 02. 2014. - 1:20.14
1 file found
1 -===- C:\Club Hits From The 70s To The 80s -3 CD\CD.3\Various - The Hits Of The 70ies Vol.3.flac
Extracted successfully
Conclusion: this track is CDDA with probability 100%
Tempfile successfully deleted.
Finished at: Sunday, 09. 02. 2014. - 1:23.15 (operation time: 0:03.01)
Various Club Hits From The 70s To The 80s -3 CD CD.1
Various Club Hits From The 70s To The 80s -3 CD CD.2
Various Club Hits From The 70s To The 80s -3 CD CD.3
Доп. информация: Сборник состоит из 3 дисков коробочная версия куплен в Дании Треки очень хорошего качества
Диск произведён в германии в 2000 году стиль Disco Pop Italo Disco

[1.29 GB] Скачать / Download