(Disco) Cerrone - Cerrone by Jamie Lewis - 2009, FLAC (image+.cue), lossless - Скачать

Жанр: Disco
Год выпуска диска: 2009
Производитель диска: Italy
Аудио кодек: FLAC
Тип рипа: image+.cue
Битрейт аудио: lossless
Продолжительность: 62:07
Трэклист:
01. The Only One (Main Mix)
02. Not Too Shabby (Main Mix)
03. Tattoo Woman (Sex On The Beach Mix)
04. You Are the One (Main Mix)
05. Love and Dance Ritual (Extended Remix)
06. Hooked on You (Dub & Main Edit)
07. Tattoo Woman (Science Fiction Robot Dub)
08. 5th Symphony
09. Music Of Life (For The Love Of Music Mix)
отsklon, респектащусь.Встречайте неувядаемого Cerrone в упаковке от Jamie Lewis! Помнится мне, потытку часового нон-стопа предпринимал небезызвестный Bob Sinclar, но как-то не получилось у него, на мой вкус.
Здесь же всё старомодненько, чинно и приличненько. Оригиналы не приобрели новое прочтение, но и не пострадали!
Помнится, на школьных дискотеках я заставлял толпу взреветь, врубая на своём Маяке-203 катушку с хитами от гениального диско-итальянца...
Здесьможно посмотреть отличный клип с шикарными разтатуированными девицами. (Это тот, что под номером 3)Приятных впечатлений!

альбом, музыка, высокое качество, pop, mp3, download, композиции, soundtrack, трек, альбом, бесплатно, скачать, torrent, торрент, поп, поп-музыка, lossless, песни, cd, дискография, pop-music

 Exact Audio Copy V0.99 prebeta 4 from 23. January 2008
EAC extraction logfile from 16. June 2009, 18:06
Cerrone / Cerrone by Jamie Lewis
Used drive : PIONEER DVD-RW DVR-112D Adapter: 1 ID: 0
Read mode : Secure
Utilize accurate stream : Yes
Defeat audio cache : Yes
Make use of C2 pointers : No
Read offset correction : 48
Overread into Lead-In and Lead-Out : No
Fill up missing offset samples with silence : Yes
Delete leading and trailing silent blocks : No
Null samples used in CRC calculations : Yes
Used interface : Installed external ASPI interface
Used output format : User Defined Encoder
Selected bitrate : 192 kBit/s
Quality : Low
Add ID3 tag : Yes
Command line compressor : C:\Program Files\E A C Audio\Flac\flac.exe
Additional command line options : -V -8 -T "artist=%a" -T "title=%t" -T "album=%g" -T "date=%y" -T "tracknumber=%n" -T "genre=%m" %s
TOC of the extracted CD
Track | Start | Length | Start sector | End sector
---------------------------------------------------------
1 | 0:00.00 | 8:15.19 | 0 | 37143
2 | 8:15.19 | 5:30.19 | 37144 | 61912
3 | 13:45.38 | 7:09.37 | 61913 | 94124
4 | 20:55.00 | 7:45.57 | 94125 | 129056
5 | 28:40.57 | 6:53.56 | 129057 | 160087
6 | 35:34.38 | 7:56.00 | 160088 | 195787
7 | 43:30.38 | 6:03.00 | 195788 | 223012
8 | 49:33.38 | 7:01.00 | 223013 | 254587
9 | 56:34.38 | 5:32.00 | 254588 | 279487
Range status and errors
Selected range
Filename G:\lossless-room.moole.ru\Cerrone - Cerrone by Jamie Lewis\Cerrone - Cerrone by Jamie Lewis.wav
Peak level 100.0 %
Range quality 100.0 %
Test CRC A7C0F6B7
Copy CRC A7C0F6B7
Copy OK
No errors occurred
AccurateRip summary
Track 1 not present in database
Track 2 not present in database
Track 3 not present in database
Track 4 not present in database
Track 5 not present in database
Track 6 not present in database
Track 7 not present in database
Track 8 not present in database
Track 9 not present in database
None of the tracks are present in the AccurateRip database
End of status report
 AUDIOCHECKER v2.0 beta (build 457) - by Dester - [email protected]
~~~~~~~~~~~~~~~~~~~~~~~~~~~~~~~~~~
Started at: четверг, 18. 06. 2009. - 15:03.08
1 file found
1 -===- E:\Музыка\Торренты\Cerrone by Jamie Lewis\Cerrone - Cerrone by Jamie Lewis.flac
Extracted successfully
Conclusion: this track is CDDA with probability 100%
Tempfile successfully deleted.
Finished at: четверг, 18. 06. 2009. - 15:08.07 (operation time: 0:04.59)

[447.9 MB] Скачать / Download