(Disco) Cerrone - The Score (Orange Mecanique) - 2006, APE (image+.cue), lossless - Скачать

Жанр: Disco
Год выпуска диска: 2006
Производитель диска: Russia
Аудио кодек: APE
Тип рипа: image+.cue
Битрейт аудио: lossless
Продолжительность: 45:41
Трэклист:
01. The Futur PCO
02. Saturday Night
03. Saturday Electro
04. Orange 5th BCO
05. B Theme
06. Orange 9th
07. The Kicker
08. Duduck Theme
09. 9th Symphony
10. The Climat
11. Orange 5th
12. Space Time
13. Hysteric Drums
Доп. информация: Рип свой, сканы приложены.

download, поп, mp3, дискография, поп-музыка, скачать, альбом, высокое качество, lossless, песни, torrent, pop-music, торрент, трек, музыка, композиции, альбом, soundtrack, pop, cd, бесплатно

 Exact Audio Copy V0.99 prebeta 4 from 23. January 2008
Отчёт EAC об извлечении, выполненном 24. августа 2009, 23:49
Cerrone / Orange Mecanique
Дисковод: Optiarc DVD RW AD-7200S Adapter: 4 ID: 0
Режим чтения : Достоверность
Использование точного потока : Да
Отключение кэша аудио : Да
Использование указателей C2 : Нет
Коррекция смещения при чтении : 48
Способность читать области Lead-in и Lead-out : Нет
Заполнение пропущенных сэмплов тишиной : Да
Удаление блоков с тишиной в начале и конце : Нет
При вычислениях CRC использовались нулевые сэмплы : Да
Интерфейс : Встроенный Win32-интерфейс для Win NT/2000
Выходной формат : Внутренние WAV-операции
Формат сэмплов : 44.100 Гц; 16 бит; стерео
TOC извлечённого CD
Трек | Старт | Длительность | Начальный сектор | Конечный сектор
---------------------------------------------------------------------
1 | 0:00.00 | 3:58.30 | 0 | 17879
2 | 3:58.30 | 4:09.21 | 17880 | 36575
3 | 8:07.51 | 2:41.02 | 36576 | 48652
4 | 10:48.53 | 4:10.68 | 48653 | 67470
5 | 14:59.46 | 3:10.47 | 67471 | 81767
6 | 18:10.18 | 4:27.65 | 81768 | 101857
7 | 22:38.08 | 4:44.42 | 101858 | 123199
8 | 27:22.50 | 2:42.33 | 123200 | 135382
9 | 30:05.08 | 3:50.20 | 135383 | 152652
10 | 33:55.28 | 2:19.64 | 152653 | 163141
11 | 36:15.17 | 4:02.50 | 163142 | 181341
12 | 40:17.67 | 4:18.20 | 181342 | 200711
13 | 44:36.12 | 1:05.29 | 200712 | 205615
Характеристики диапазона извлечения и сообщения об ошибках
Выбранный диапазон
Имя файла C:\Documents and Settings\Администратор\Рабочий стол\Новая папка (2)\Cerrone - Orange Mecanique.wav
Пиковый уровень 100.0 %
Качество диапазона 100.0 %
CRC теста 217EBC64
CRC копии 217EBC64
Копирование... OK
Ошибок не произошло
AccurateRip: сводка
Трек 1 нет в базе данных
Трек 2 нет в базе данных
Трек 3 нет в базе данных
Трек 4 нет в базе данных
Трек 5 нет в базе данных
Трек 6 нет в базе данных
Трек 7 нет в базе данных
Трек 8 нет в базе данных
Трек 9 нет в базе данных
Трек 10 нет в базе данных
Трек 11 нет в базе данных
Трек 12 нет в базе данных
Трек 13 нет в базе данных
Ни одного трека нет в базе AccurateRip
Конец отчёта

[279 MB] Скачать / Download