(Disco) Cherry Laine - I'm Hot + Bonus - 1979 (CDM 2002), FLAC (image+.cue), lossless - Скачать

Жанр: Disco
Страна-производитель диска: Russia
Год издания: 1979 (CDM 2002)
Издатель (лейбл): CDMAXIMUM
Номер по каталогу: CDM 0502-1012
Страна: West Germany
Аудиокодек: FLAC (*.flac)
Тип рипа: image+.cue
Битрейт аудио: lossless
Продолжительность: 00:53:04
Источник (релизер):Собственный рип
Наличие сканов в содержимом раздачи:да, PNG 600dpi
Треклист:
01.Catch The Cat[03:07]
02.Speed Freak Sam[04:16]
03.Sergeant Rock[04:21]
04.I`m Hot[03:46]
05.Mamy Blue[03:31]
06.The Sea-Fare Folk[02:52]
07.Black Jack[02:53]
08.You Are The Song[03:17]
09.Love Is All We Need[03:27]
10.Musicman[02:55]
Bonus:
11.Al Capone[04:39]
12.Come On And Sing[03:02]
13.Jungle Lover Boy[06:21]
14.No More Monday[04:32]

download, поп-музыка, mp3, песни, скачать, torrent, soundtrack, музыка, композиции, cd, lossless, дискография, бесплатно, pop, высокое качество, альбом, pop-music, трек, торрент, поп, альбом

 Exact Audio Copy V1.0 beta 3 from 29. August 2011
Отчёт EAC об извлечении, выполненном 25. сентября 2013, 20:35
Cherry Laine / I`m Hot + Bonus
Дисковод: PIONEER BD-RW BDR-206 Adapter: 0 ID: 2
Режим чтения : Достоверность
Использование точного потока : Да
Отключение кэша аудио : Да
Использование указателей C2 : Нет
Коррекция смещения при чтении : 667
Способность читать области Lead-in и Lead-out : Нет
Заполнение пропущенных сэмплов тишиной : Да
Удаление блоков с тишиной в начале и конце : Нет
При вычислениях CRC использовались нулевые сэмплы : Да
Интерфейс : Встроенный Win32-интерфейс для Win NT/2000
Выходной формат : Пользовательский кодировщик
Выбранный битрейт : 1024 kBit/s
Качество : Высокий
Добавление ID3-тега : Нет
Утилита сжатия : C:\Program Files (x86)\Exact Audio Copy\FLAC\FLAC.EXE
Дополнительные параметры : -T "COMMENT=Ripped by SergeyJD"-8 -V -T "ARTIST=%artist%" -T "TITLE=%title%" -T "ALBUM=%albumtitle%" -T "DATE=%year%" -T "TRACKNUMBER=%tracknr%" -T "GENRE=%genre%" -T "COMMENT=%comment%" -T "BAND=%albuminterpret%" -T "ALBUMARTIST=%albuminterpret%" -T "COMPOSER=%composer%" %haslyrics%--tag-from-file=LYRICS="%lyricsfile%"%haslyrics% -T "DISCNUMBER=%cdnumber%" -T "TOTALDISCS=%totalcds%" -T "TOTALTRACKS=%numtracks%" %hascover%--picture="%coverfile%"%hascover% %source% -o %dest%
TOC извлечённого CD
Трек | Старт | Длительность | Начальный сектор | Конечный сектор
---------------------------------------------------------------------
1 | 0:00.00 | 3:07.50 | 0 | 14074
2 | 3:07.50 | 4:16.59 | 14075 | 33333
3 | 7:24.34 | 4:21.29 | 33334 | 52937
4 | 11:45.63 | 3:46.02 | 52938 | 69889
5 | 15:31.65 | 3:31.61 | 69890 | 85775
6 | 19:03.51 | 2:52.08 | 85776 | 98683
7 | 21:55.59 | 2:53.39 | 98684 | 111697
8 | 24:49.23 | 3:17.01 | 111698 | 126473
9 | 28:06.24 | 3:27.11 | 126474 | 142009
10 | 31:33.35 | 2:55.73 | 142010 | 155207
11 | 34:29.33 | 4:39.10 | 155208 | 176142
12 | 39:08.43 | 3:02.54 | 176143 | 189846
13 | 42:11.22 | 6:21.14 | 189847 | 218435
14 | 48:32.36 | 4:32.00 | 218436 | 238835
Характеристики диапазона извлечения и сообщения об ошибках
Выбранный диапазон
Имя файла D:\РАЗДАЧИ!!!!\Cherry Laine - I'm Hot + Bonus - 1979 (2002)\Cherry Laine - I`m Hot + Bonus.wav
Пиковый уровень 100.0 %
Скорость извлечения 7.3 X
Качество диапазона 100.0 %
CRC теста A1BFCBE5
CRC копии A1BFCBE5
Копирование... OK
Ошибок не произошло
AccurateRip: сводка
Трек 1 : извлечено точно (доверие 2) [6A2BA732] (AR v1)
Трек 2 : извлечено точно (доверие 2) [DAEF5E37] (AR v1)
Трек 3 : извлечено точно (доверие 2) [BA58DB6A] (AR v1)
Трек 4 : извлечено точно (доверие 2) [62D0787A] (AR v1)
Трек 5 : извлечено точно (доверие 2) [441F58ED] (AR v1)
Трек 6 : извлечено точно (доверие 2) [4AA29AD5] (AR v1)
Трек 7 : извлечено точно (доверие 2) [067F88F0] (AR v1)
Трек 8 : извлечено точно (доверие 2) [5497031C] (AR v1)
Трек 9 : извлечено точно (доверие 2) [359641BF] (AR v1)
Трек 10 : извлечено точно (доверие 2) [4DE08835] (AR v1)
Трек 11 : извлечено точно (доверие 2) [982EB65E] (AR v1)
Трек 12 : извлечено точно (доверие 2) [FC6E6A41] (AR v1)
Трек 13 : извлечено точно (доверие 2) [BE74427A] (AR v1)
Трек 14 : извлечено точно (доверие 2) [A612400D] (AR v1)
Все треки извлечены точно
Конец отчёта
==== Контрольная сумма отчёта D6279999537609E67C415E1F1E9106E96492095E91C47AB63D02A443BB0C901F ====
 REM GENRE Disco
REM DATE 1979
REM DISCID C40C700E
REM COMMENT "ExactAudioCopy v1.0b3"
PERFORMER "Cherry Laine"
TITLE "I`m Hot + Bonus"
FILE "Cherry Laine - I`m Hot + Bonus.flac" WAVE
TRACK 01 AUDIO
TITLE "Catch The Cat"
PERFORMER "Cherry Laine"
INDEX 01 00:00:00
TRACK 02 AUDIO
TITLE "Speed Freak Sam"
PERFORMER "Cherry Laine"
INDEX 01 03:07:50
TRACK 03 AUDIO
TITLE "Sergeant Rock"
PERFORMER "Cherry Laine"
INDEX 01 07:24:34
TRACK 04 AUDIO
TITLE "I`m Hot"
PERFORMER "Cherry Laine"
INDEX 01 11:45:63
TRACK 05 AUDIO
TITLE "Mamy Blue"
PERFORMER "Cherry Laine"
INDEX 01 15:31:65
TRACK 06 AUDIO
TITLE "The Sea-Fare Folk"
PERFORMER "Cherry Laine"
INDEX 01 19:03:51
TRACK 07 AUDIO
TITLE "Black Jack"
PERFORMER "Cherry Laine"
INDEX 01 21:55:59
TRACK 08 AUDIO
TITLE "You Are The Song"
PERFORMER "Cherry Laine"
INDEX 01 24:49:23
TRACK 09 AUDIO
TITLE "Love Is All We Need"
PERFORMER "Cherry Laine"
INDEX 01 28:06:24
TRACK 10 AUDIO
TITLE "Musicman"
PERFORMER "Cherry Laine"
INDEX 01 31:33:35
TRACK 11 AUDIO
TITLE "Al Capone"
PERFORMER "Cherry Laine"
INDEX 01 34:29:33
TRACK 12 AUDIO
TITLE "Come On And Sing"
PERFORMER "Cherry Laine"
INDEX 01 39:08:43
TRACK 13 AUDIO
TITLE "Jungle Lover Boy"
PERFORMER "Cherry Laine"
INDEX 01 42:11:22
TRACK 14 AUDIO
TITLE "No More Monday"
PERFORMER "Cherry Laine"
INDEX 01 48:32:36
 -----------------------
DON'T MODIFY THIS FILE
-----------------------
PERFORMER: auCDtect Task Manager, ver. 1.5.1RC6 build 1.5.1.7
Copyright (c) 2008-2010 y-soft. All rights reserved
http://y-soft.org
ANALYZER: auCDtect: CD records authenticity detector, version 0.8.2
Copyright (c) 2004 Oleg Berngardt. All rights reserved.
Copyright (c) 2004 Alexander Djourik. All rights reserved.
FILE: Cherry Laine - I`m Hot + Bonus.flac
Size: 369999966 Hash: D5DE4064EE07BDCFFEDECF7F7E39CAEE Accuracy: -m0
Conclusion: CDDA 100%
Signature: 981BB224EDC0FB776029E9F744945250361B432A
София Эянго (SOFIA EJANGO) AKA CHERRY LAINE.
Родилась в Камеруне. Жила в Швейцарии, потом - в Германии, во Франкфурте-на-Майне.
В 1977 году выступление Софии во франкфуртском ресторане «Dorian Gray» услышал Бернт Мёрле (Bernt Moehrle). Вокальные данные и драйв произвели на Бернта сильное впечатление и он предложил ей попробовать свои силы в сольном проекте CHERRY LAINE.
В 1979 году Бернт создал группу CHILLY, однако у него возникли проблемы с одной из участниц группы - Андреа Линз. Весной 1979 года Бернт меняет ее на Софию и в дальнейшем сольная карьера и карьера в составе группы у Софии тесно переплетаются.
В составе Chilly София выступала с 1979 по 1984 г.
В конце 1978 CHERRY LAINE выпускае сингл Catch The Cat / Come On And Sing, а в 1979 году был выпущен альбом Чери Лэйн «I’m Hot» (CBS), на котором были записаны 10 песен, в том числе и новая версия знаменитого хита Mamy Blue.
В дальнейшем София отошла от музыкальной жизни. В настоящее время, по слухам, она по-прежнему живет во Франкфурте.
Кстати, CHERRY LAINE умудрилась попасть в ходивший в 80-е список групп и исполнителей, произведения которых было запрещено ввозить в СССР.
Синглы, макси-синглы.
1977 Everybody Knows It
1977 Night In Chicago / You Love Me In A Special Way
1978 Una Noche en Chicago (a Night In Chicago spanyol nyelvű változata)
1978 Catch the Cat / Come On And Sing
1978 Coge Al Gato (a Catch the Cat - испанская версия) / Ven Y Canta (a Come On And Sing - испанская версия)
1979 The Sea-Fare Folk / You Are the Song
1979 Danny’s Disco / I’m Hot
1980 No More Monday / Al Capone
1980 I’m Losing You / Easy Ride
1981 Waiting / Ooh I Like It
1986 Jungle Lover Boy
1993 Night In Chicago / The Sea-Fare Folk / Catch the Cat (a Golden-Dance-Classics)
2005 Catch the Cat – Cherry Laine Mix 2005
Альбом
1979 I’m Hot

[488.9 MB] Скачать / Download