(Disco) Destination - From Beginning To End - 1993, FLAC (tracks+.cue), lossless - Скачать

Жанр: Disco
Страна-производитель диска: USA
Год издания диска: 1993
Страна: USA
Аудиокодек: FLAC (*.flac)
Тип рипа: tracks+.cue
Битрейт аудио: lossless
Продолжительность: 00:57:13
Источник (релизер): What.cd
Наличие сканов в содержимом раздачи: нет
Треклист:
01. The Beginning 03:40
02. Move On Up (Remix) 08:32
03. Castles (Suite) 09:22
04. My Number 1 Request 09:32
05. The End 06:32
06. Move On Up (Suite) 08:30
07. My Number 1 Request (Remix) 07:06
08. Move On Up (Radio Edit) 03:55

торрент, альбом, бесплатно, pop, поп, музыка, скачать, lossless, песни, трек, композиции, mp3, soundtrack, cd, поп-музыка, pop-music, download, высокое качество, torrent, альбом, дискография

 Exact Audio Copy V0.99 prebeta 5 from 4. May 2009
EAC extraction logfile from 10. December 2009, 13:35
Destination / From Beginning To End
Used drive : _NEC DVD_RW ND-3520AW Adapter: 2 ID: 0
Read mode : Secure
Utilize accurate stream : Yes
Defeat audio cache : Yes
Make use of C2 pointers : No
Read offset correction : 48
Overread into Lead-In and Lead-Out : No
Fill up missing offset samples with silence : Yes
Delete leading and trailing silent blocks : No
Null samples used in CRC calculations : Yes
Used interface : Native Win32 interface for Win NT & 2000
Gap handling : Appended to previous track
Used output format : User Defined Encoder
Selected bitrate : 896 kBit/s
Quality : High
Add ID3 tag : No
Command line compressor : D:\Programme\FLAC\flac.exe
Additional command line options : -V -8 -T "artist=%a" -T "title=%t" -T "album=%g" -T "date=%y" -T "tracknumber=%n" -T "genre=%m" %s
TOC of the extracted CD
Track | Start | Length | Start sector | End sector
---------------------------------------------------------
1 | 0:00.00 | 3:40.35 | 0 | 16534
2 | 3:40.35 | 8:32.60 | 16535 | 54994
3 | 12:13.20 | 9:22.70 | 54995 | 97214
4 | 21:36.15 | 9:32.50 | 97215 | 140164
5 | 31:08.65 | 6:32.60 | 140165 | 169624
6 | 37:41.50 | 8:30.30 | 169625 | 207904
7 | 46:12.05 | 7:06.22 | 207905 | 239876
8 | 53:18.27 | 3:55.03 | 239877 | 257504
Track 1
Filename D:\Destination\01 - Destination - The Beginning.wav
Pre-gap length 0:00:02.00
Peak level 99.0 %
Track quality 99.9 %
Test CRC 1B10FBE1
Copy CRC 1B10FBE1
Copy OK
Track 2
Filename D:\Destination\02 - Destination - Move On Up (Remix).wav
Peak level 96.7 %
Track quality 99.9 %
Test CRC F7ECA3B3
Copy CRC F7ECA3B3
Copy OK
Track 3
Filename D:\Destination\03 - Destination - Castles (Suite).wav
Peak level 100.0 %
Track quality 100.0 %
Test CRC FEB10312
Copy CRC FEB10312
Copy OK
Track 4
Filename D:\Destination\04 - Destination - My Number 1 Request.wav
Peak level 100.0 %
Track quality 99.9 %
Test CRC 3D668FCE
Copy CRC 3D668FCE
Copy OK
Track 5
Filename D:\Destination\05 - Destination - The End.wav
Peak level 98.2 %
Track quality 99.9 %
Test CRC AB1AEDCD
Copy CRC AB1AEDCD
Copy OK
Track 6
Filename D:\Destination\06 - Destination - Move On Up (Suite).wav
Peak level 100.0 %
Track quality 100.0 %
Test CRC 39DDA36C
Copy CRC 39DDA36C
Copy OK
Track 7
Filename D:\Destination\07 - Destination - My Number 1 Request (Remix).wav
Peak level 99.9 %
Track quality 99.9 %
Test CRC 778CB23B
Copy CRC 778CB23B
Copy OK
Track 8
Filename D:\Destination\08 - Destination - Move On Up (Radio Edit).wav
Peak level 99.0 %
Track quality 100.0 %
Test CRC 3861BA53
Copy CRC 3861BA53
Copy OK
No errors occurred
End of status report
 REM GENRE Disco
REM DATE 1979
REM DISCID 610D6908
REM COMMENT "ExactAudioCopy v0.99pb5"
PERFORMER "Destination"
TITLE "From Beginning To End"
FILE "01 - Destination - The Beginning.wav" WAVE
TRACK 01 AUDIO
TITLE "The Beginning"
PERFORMER "Destination"
INDEX 01 00:00:00
FILE "02 - Destination - Move On Up (Remix).wav" WAVE
TRACK 02 AUDIO
TITLE "Move On Up (Remix)"
PERFORMER "Destination"
INDEX 01 00:00:00
FILE "03 - Destination - Castles (Suite).wav" WAVE
TRACK 03 AUDIO
TITLE "Castles (Suite)"
PERFORMER "Destination"
INDEX 01 00:00:00
FILE "04 - Destination - My Number 1 Request.wav" WAVE
TRACK 04 AUDIO
TITLE "My Number 1 Request"
PERFORMER "Destination"
INDEX 01 00:00:00
FILE "05 - Destination - The End.wav" WAVE
TRACK 05 AUDIO
TITLE "The End"
PERFORMER "Destination"
INDEX 01 00:00:00
FILE "06 - Destination - Move On Up (Suite).wav" WAVE
TRACK 06 AUDIO
TITLE "Move On Up (Suite)"
PERFORMER "Destination"
INDEX 01 00:00:00
FILE "07 - Destination - My Number 1 Request (Remix).wav" WAVE
TRACK 07 AUDIO
TITLE "My Number 1 Request (Remix)"
PERFORMER "Destination"
INDEX 01 00:00:00
FILE "08 - Destination - Move On Up (Radio Edit).wav" WAVE
TRACK 08 AUDIO
TITLE "Move On Up (Radio Edit)"
PERFORMER "Destination"
INDEX 01 00:00:00

[406.4 MB] Скачать / Download