(Disco, Disco Funk, Disco Soul) VA / Igor Altman - Come Back Disco 1 (Classic Disco Nonstop Mix) - 2011, FLAC (tracks+.cue), lossless - Скачать

Жанр: Disco, Disco Funk, Disco Soul
Год выпуска диска: 2011
Производитель диска: Unknown Russian Source Records / Russia
Аудио кодек: FLAC
Тип рипа: tracks+.cue
Битрейт аудио: lossless
Продолжительность: 79:02
Трэклист:
01. Igor Altman - Come Back Disco 1 (Classic Disco Nonstop Mix) Set A - 32:32
02. Igor Altman - Come Back Disco 1 (Classic Disco Nonstop Mix) Set B - 22:00
03. Igor Altman - Come Back Disco 1 (Classic Disco Nonstop Mix) Set C - 24:30
Доп. информация:
Producer, Compiled By, Mixed By, Design – Igor Altman
Рип оригинального мастер-диска.
Информация наDISCOGSmp3 версия ЗДЕСЬ
Приятного прослушивания!

поп, torrent, песни, дискография, mp3, композиции, lossless, soundtrack, поп-музыка, pop, download, музыка, скачать, высокое качество, альбом, cd, pop-music, трек, альбом, торрент, бесплатно

COME BACK DISCO 1 SET A - 32:32
00. intro: STEVE DAHL - Disco Demolition Night (Comiskey Park / Chicago, Illinois | 1979, July 12)
01. SYLVERS - Come Back Lover, Come Back (A | Solar | AS-11532 | 1981)
02. DYNASTY - Love In The Fast Lane (A | Solar | K 12577 (T) | 1981)
03. WHO'S WHO - Hypnodance (A2 | Carrere | M/S 2147 | 1979)
04. Q - The Voice Of Q (A | Philly World Records | PWR-2007 | 1982)
05. CLAUDJA BARRY - Why Must A Girl Like Me (B3 | Salsoul Records | SZS 5512 | 1977)
06. RICHARD T. BEAR - Sunshine Hotel (Just Walk On In) (A | RCA Victor | PD-11492 | 1978)
07. DYNASTY - I Don't Wanna Be A Freak (But I Can't Help Myself) (A | Solar | YD-11693 | 1979)
08. JIMMY 'BO' HORNE - Spank (A | Sunshine Sound Disco | SSD-206 | 1978)
09. S.O.S. BAND - Take Your Time (Do It Right) (A | Tabu Records | 4Z8 5523 | 1980)
10. STACY LATTISAW - Jump To The Beat (A | Atlantic | ATL 20 228 | 1980)
11. MAXINE SINGLETON - You Can't Run From Love (A | Creole Records | CR 12-50 | 1982)
12. MIDNIGHT STAR - Operator (A | Solar | 0-66931 | 1984)
13. BENELUX AND NANCY DEE - Switch (A | Scope | SC 4 T | 1979)
14. DAN HARTMAN - Relight My Fire (A | Blue Sky | SKY 12.8104 | 1979)
COME BACK DISCO 1 SET B - 22:00
01. FRANTIQUE - Getting Serious (B | Philadelphia International Records | 2Z8 3697 | 1979)
02. SUZI LANE - Harmony (A | Elektra | AS-11429 | 1979)
03. POUSSEZ! - Leave That Boy Alone (A | Vanguard | SPV 33 | 1980)
04. SKYY - Call Me (A | Salsoul Records | SG 356 DJ | 1981)
05. NICK STRAKER BAND - Straight Ahead (A | Friends Records | FR 12044 | 1982)
06. JOHN DAVIS & THE MONSTER ORCHESTRA - Love Magic (A | Sam Records | 23-10976 | 1979)
07. SPINNERS - Working My Way Back To You (A | Atlantic | ATL 20 205 | 1979)
COME BACK DISCO 1 SET C - 24:30
01. BAGARRE - Dirty Love (A4 | Carnaby | TXS 3258 | 1982)
02. JANIS IAN - Fly Too High (A | CBS | CBS 12-7936 | 1979)
03. CARRIE LUCAS - Dance With You (A | Solar | YD-11483 | 1979)
04. VOYAGE - From East To West (A1 | Sirocco | 2933803 | 1977)
05. EARTH, WIND & FIRE - Boogie Wonderland (B | CBS | CBS 12-7292 | 1979)
06. VICKI SUE ROBINSON - Nighttime Fantasy (A | RCA Victor | PD-11442 | 1979)
07. GONZALES - Haven't Stopped Dancing Yet (A | Sonopresse | 2S 052 06951Z | 1977)
08. SHEILA & B. DEVOTION - Spacer (A | Carrere | DM 4811 | 1979)
 Exact Audio Copy V0.99 prebeta 5 from 4. May 2009
Отчёт EAC об извлечении, выполненном 4. сентября 2011, 10:55
Igor Altman / Come Back Disco 1 (Classic Disco Nonstop Mix)
Дисковод: PIONEER DVD-RW DVR-112D Adapter: 1 ID: 0
Режим чтения : Достоверность
Использование точного потока : Да
Отключение кэша аудио : Да
Использование указателей C2 : Нет
Коррекция смещения при чтении : 48
Способность читать области Lead-in и Lead-out : Нет
Заполнение пропущенных сэмплов тишиной : Да
Удаление блоков с тишиной в начале и конце : Нет
При вычислениях CRC использовались нулевые сэмплы : Да
Интерфейс : Установленный внешний ASPI-интерфейс
Обработка зазоров : Добавлено к предыдущему треку
Выходной формат : Пользовательский кодировщик
Выбранный битрейт : 1024 kBit/s
Качество : Высокий
Добавление ID3-тэга : Да
Утилита сжатия : C:\Program Files\FLAC\flac.exe
Дополнительные параметры : -6 -V -T "ARTIST=%a" -T "TITLE=%t" -T "ALBUM=%g" -T "DATE=%y" -T "TRACKNUMBER=%n" -T "GENRE=%m" -T "COMMENT=EAC FLAC -6" %s
TOC извлечённого CD
Трек | Старт | Длительность | Начальный сектор | Конечный сектор
---------------------------------------------------------------------
1 | 0:00.00 | 32:34.03 | 0 | 146552
2 | 32:34.03 | 22:03.02 | 146553 | 245779
3 | 54:37.05 | 24:31.19 | 245780 | 356123
Трек 1
Имя файла E:\Igor Altman - Come Back Disco 1 (Classic Disco Nonstop Mix)\01. Igor Altman - Come Back Disco 1 (Classic Disco Nonstop Mix) Set A.wav
Длина предзазора 0:00:02.00
Пиковый уровень 96.6 %
Качество трека 100.0 %
CRC теста DE6D0AFC
CRC копии DE6D0AFC
Копирование... OK
Трек 2
Имя файла E:\Igor Altman - Come Back Disco 1 (Classic Disco Nonstop Mix)\02. Igor Altman - Come Back Disco 1 (Classic Disco Nonstop Mix) Set B.wav
Пиковый уровень 96.5 %
Качество трека 100.0 %
CRC теста 0D936594
CRC копии 0D936594
Копирование... OK
Трек 3
Имя файла E:\Igor Altman - Come Back Disco 1 (Classic Disco Nonstop Mix)\03. Igor Altman - Come Back Disco 1 (Classic Disco Nonstop Mix) Set C.wav
Пиковый уровень 96.5 %
Качество трека 100.0 %
CRC теста D190E793
CRC копии D190E793
Копирование... OK
Ошибок не произошло
Конец отчёта
 AUDIOCHECKER v1.2 - by Dester - [email protected]
~~~~~~~~~~~~~~~~~
1 -===- E:\Igor Altman - Come Back Disco 1 (Classic Disco Nonstop Mix)\01. Igor Altman - Come Back Disco 1 (Classic Disco Nonstop Mix) Set A.flac
Extracted successfully
Conclusion: This track looks like CDDA with probability 100%
2 -===- E:\Igor Altman - Come Back Disco 1 (Classic Disco Nonstop Mix)\02. Igor Altman - Come Back Disco 1 (Classic Disco Nonstop Mix) Set B.flac
Extracted successfully
Conclusion: This track looks like CDDA with probability 100%
3 -===- E:\Igor Altman - Come Back Disco 1 (Classic Disco Nonstop Mix)\03. Igor Altman - Come Back Disco 1 (Classic Disco Nonstop Mix) Set C.flac
Extracted successfully
Conclusion: This track looks like CDDA with probability 100%

[560.2 MB] Скачать / Download