(Disco, Disco Funk, Disco Soul) VA / Igor Altman - Come Back Disco 2 (Classic Disco Nonstop Mix) - 2013, FLAC (tracks+.cue), lossless - Скачать

Доп. информация:
Producer, Compiled By, Mixed By, Design - Igor Altman
COME BACK DISCO 1

песни, дискография, cd, альбом, трек, mp3, альбом, музыка, поп, скачать, pop-music, lossless, download, композиции, бесплатно, pop, torrent, высокое качество, торрент, soundtrack, поп-музыка

01. Come Back Disco 2 (Classic Disco Nonstop Mix) Set D ''It's Yesterday Once More'' - 33:00
intro: Carpenters - Yesterday Once More
Black Ivory - Mainline
Billy Ocean - Stay The Night
Chemise - She Can't Love You
Peter Jacques Band - Going Dancin' Down The Street
Sharon Brown - I Specialize In Love
Sister Sledge - He's The Greatest Dancer
Mary Jane Girls - In My House
Dexter Wansel - I'll Never Forget (My Favorite Disco)
Gayle Adams - Your Love Is A Life Saver
Jackie Moore - This Time Baby
Goody Goody - #1 Dee Jay
outro: Carpenters - Yesterday Once More
02. Come Back Disco 2 (Classic Disco Nonstop Mix) Set E ''New York City Lights'' - 21:10
Shalamar - There It Is
Level 42 - Love Games (Album Version)
Odyssey - Native New Yorker (Original 12'' Mix)
Street Angels - Dressing Up!
Dr. Perri Johnson - Kick It Out
Lillo Thomas - I'm In Love
Giorgio Moroder - I'm Left, You're Right, She's Gone
Candi Staton - When You Wake Up Tomorrow
Oliver Cheatham - S.O.S.
03. Come Back Disco 2 (Classic Disco Nonstop Mix) Set F ''For The Grace Of God'' - 25:40
Giorgio Moroder - I Wanna Funk With You Tonite
Gwen McCrae - Keep The Fire Burning
Earth, Wind & Fire - Let's Groove
Cosmic Gal - Rock Roll Dancing Night
Harlow - Take Off
Machine - There But For The Grace Of God Go I
Slick - Feelin' Good
Atlantic Starr - Let The Spirit Move Ya
Laser - His Name Is Charlie
The Three Degrees - The Runner
 Exact Audio Copy V1.0 beta 2 from 29. April 2011
EAC extraction logfile from 22. January 2013, 21:10
Various Artists / Igor Altman - Come Back Disco 2 (Classic Disco Nonstop Mix)
Used drive : Optiarc DVD RW AD-7203A Adapter: 3 ID: 0
Read mode : Secure
Utilize accurate stream : Yes
Defeat audio cache : Yes
Make use of C2 pointers : No
Read offset correction : 48
Overread into Lead-In and Lead-Out : No
Fill up missing offset samples with silence : Yes
Delete leading and trailing silent blocks : No
Null samples used in CRC calculations : Yes
Used interface : Native Win32 interface for Win NT & 2000
Gap handling : Appended to previous track
Used output format : User Defined Encoder
Selected bitrate : 128 kBit/s
Quality : High
Add ID3 tag : No
Command line compressor : C:\Program Files (x86)\Exact Audio Copy\Flac\flac.exe
Additional command line options : -V -8 -T "Date=%year%" -T "Genre=%genre%" %source%
TOC of the extracted CD
Track | Start | Length | Start sector | End sector
---------------------------------------------------------
1 | 0:00.00 | 32:59.54 | 0 | 148478
2 | 32:59.54 | 21:10.33 | 148479 | 243761
3 | 54:10.12 | 25:37.30 | 243762 | 359066
Track 1
Filename D:\Igor Altman - Come Back Disco 2 (Classic Disco Nonstop Mix) flac\01 Come Back Disco 2 (Classic Disco Nonstop Mix) Set D ''It's Yesterday Once More''.wav
Pre-gap length 0:00:02.00
Peak level 96.5 %
Extraction speed 3.6 X
Track quality 99.9 %
Test CRC 823449A0
Copy CRC 823449A0
Track not present in AccurateRip database
Copy OK
Track 2
Filename D:\Igor Altman - Come Back Disco 2 (Classic Disco Nonstop Mix) flac\02 Come Back Disco 2 (Classic Disco Nonstop Mix) Set E ''New York City Lights''.wav
Peak level 96.5 %
Extraction speed 5.0 X
Track quality 100.0 %
Test CRC 5837E38A
Copy CRC 5837E38A
Track not present in AccurateRip database
Copy OK
Track 3
Filename D:\Igor Altman - Come Back Disco 2 (Classic Disco Nonstop Mix) flac\03 Come Back Disco 2 (Classic Disco Nonstop Mix) Set F ''For The Grace Of God''.wav
Peak level 96.5 %
Extraction speed 5.9 X
Track quality 100.0 %
Test CRC 7106005B
Copy CRC 7106005B
Track not present in AccurateRip database
Copy OK
None of the tracks are present in the AccurateRip database
No errors occurred
End of status report
==== Log checksum 551849EBD1836F5138852F89747A0C2370EF3AE9A25B71D2BFD3F6ADF0FD1F67 ====
 REM GENRE Disco
REM DATE 2013
REM DISCID 2112B303
REM COMMENT "ExactAudioCopy v1.0b2"
PERFORMER "Various Artists"
TITLE "Igor Altman - Come Back Disco 2 (Classic Disco Nonstop Mix)"
FILE "01 Come Back Disco 2 (Classic Disco Nonstop Mix) Set D ''It's Yesterday Once More''.wav" WAVE
TRACK 01 AUDIO
TITLE "Come Back Disco 2 (Classic Disco Nonstop Mix) Set D ''It's Yesterday Once More''"
PERFORMER "Igor Altman"
FLAGS DCP
INDEX 01 00:00:00
FILE "02 Come Back Disco 2 (Classic Disco Nonstop Mix) Set E ''New York City Lights''.wav" WAVE
TRACK 02 AUDIO
TITLE "Come Back Disco 2 (Classic Disco Nonstop Mix) Set E ''New York City Lights''"
PERFORMER "Igor Altman"
FLAGS DCP
INDEX 01 00:00:00
FILE "03 Come Back Disco 2 (Classic Disco Nonstop Mix) Set F ''For The Grace Of God''.wav" WAVE
TRACK 03 AUDIO
TITLE "Come Back Disco 2 (Classic Disco Nonstop Mix) Set F ''For The Grace Of God''"
PERFORMER "Igor Altman"
FLAGS DCP
INDEX 01 00:00:00

[553.4 MB] Скачать / Download