(Disco) Don Ray - Garden Of Love - 1994, APE (image+.cue), lossless - Скачать

Жанр:Disco
Год выпуска диска:1994
Производитель диска:USA - Hot Productions
Аудио кодек:APE
Тип рипа:image+.cue
Битрейт аудио:lossless
Продолжительность:37:28
Трэклист:
01. Got To Have Loving 8:21
02. Body And Soul 4:27
03. Midnight Madness 5:46
04. Standing In The Rain 6:40
05. Garden Of Love 4:42
06. My Desire 7:32

Доп.информация:
Абсолютно все рипы сделаны с оригинальных CD из моей коллекции !!!
Полные сканы обложек и дисков прилагаются (600dpi, PNG) !!!

альбом, поп-музыка, музыка, cd, скачать, torrent, дискография, бесплатно, песни, pop, download, высокое качество, lossless, поп, pop-music, трек, композиции, mp3, soundtrack, торрент, альбом

Обратите внимание !!!
Материал выложен ИСКЛЮЧИТЕЛЬНО для ознакомления, так что не забудьте, пожалуйста,
удалить его с жёсткого диска после ознакомления, пойти в магазин и купить оригинальное издание !!!
Back
Отчет EAC
Exact Audio Copy V0.99 prebeta 5 from 4. May 2009
Отчёт EAC об извлечении, выполненном 21. сентября 2009, 23:59
Don Ray / Garden Of Love
Дисковод: Optiarc DVD RW AD-5200A Adapter: 0 ID: 0
Режим чтения : Достоверность
Использование точного потока : Да
Отключение кэша аудио : Да
Использование указателей C2 : Нет
Коррекция смещения при чтении : 48
Способность читать области Lead-in и Lead-out : Нет
Заполнение пропущенных сэмплов тишиной : Да
Удаление блоков с тишиной в начале и конце : Нет
При вычислениях CRC использовались нулевые сэмплы : Да
Интерфейс : Установленный внешний ASPI-интерфейс
Выходной формат : Внутренние WAV-операции
Формат сэмплов : 44.100 Гц; 16 бит; стерео
TOC извлечённого CD
Трек | Старт | Длительность | Начальный сектор | Конечный сектор
---------------------------------------------------------------------
1 | 0:00.00 | 8:21.27 | 0 | 37601
2 | 8:21.27 | 4:26.45 | 37602 | 57596
3 | 12:47.72 | 5:45.40 | 57597 | 83511
4 | 18:33.37 | 6:39.70 | 83512 | 113506
5 | 25:13.32 | 4:42.33 | 113507 | 134689
6 | 29:55.65 | 7:32.17 | 134690 | 168606
Характеристики диапазона извлечения и сообщения об ошибках
Выбранный диапазон
Имя файла E:\Don Ray - Garden Of Love\Don Ray - Garden Of Love.wav
Пиковый уровень 100.0 %
Качество диапазона 99.9 %
CRC теста 6F0BE3C0
CRC копии 6F0BE3C0
Копирование... OK
Ошибок не произошло
AccurateRip: сводка
Трек 1 нет в базе данных
Трек 2 нет в базе данных
Трек 3 нет в базе данных
Трек 4 нет в базе данных
Трек 5 нет в базе данных
Трек 6 нет в базе данных
Ни одного трека нет в базе AccurateRip
Конец отчёта
Материал выложен ИСКЛЮЧИТЕЛЬНО для ознакомления, так что не забудьте, пожалуйста,
удалить его с жёсткого диска после ознакомления, пойти в магазин и купить оригинальное издание !!!
Exact Audio Copy V0.99 prebeta 5 from 4. May 2009
Отчёт EAC об извлечении, выполненном 21. сентября 2009, 23:59
Don Ray / Garden Of Love
Дисковод: Optiarc DVD RW AD-5200A Adapter: 0 ID: 0
Режим чтения : Достоверность
Использование точного потока : Да
Отключение кэша аудио : Да
Использование указателей C2 : Нет
Коррекция смещения при чтении : 48
Способность читать области Lead-in и Lead-out : Нет
Заполнение пропущенных сэмплов тишиной : Да
Удаление блоков с тишиной в начале и конце : Нет
При вычислениях CRC использовались нулевые сэмплы : Да
Интерфейс : Установленный внешний ASPI-интерфейс
Выходной формат : Внутренние WAV-операции
Формат сэмплов : 44.100 Гц; 16 бит; стерео
TOC извлечённого CD
Трек | Старт | Длительность | Начальный сектор | Конечный сектор
---------------------------------------------------------------------
1 | 0:00.00 | 8:21.27 | 0 | 37601
2 | 8:21.27 | 4:26.45 | 37602 | 57596
3 | 12:47.72 | 5:45.40 | 57597 | 83511
4 | 18:33.37 | 6:39.70 | 83512 | 113506
5 | 25:13.32 | 4:42.33 | 113507 | 134689
6 | 29:55.65 | 7:32.17 | 134690 | 168606
Характеристики диапазона извлечения и сообщения об ошибках
Выбранный диапазон
Имя файла E:\Don Ray - Garden Of Love\Don Ray - Garden Of Love.wav
Пиковый уровень 100.0 %
Качество диапазона 99.9 %
CRC теста 6F0BE3C0
CRC копии 6F0BE3C0
Копирование... OK
Ошибок не произошло
AccurateRip: сводка
Трек 1 нет в базе данных
Трек 2 нет в базе данных
Трек 3 нет в базе данных
Трек 4 нет в базе данных
Трек 5 нет в базе данных
Трек 6 нет в базе данных
Ни одного трека нет в базе AccurateRip
Конец отчёта

[320.5 MB] Скачать / Download