(Disco) French Kiss - Panic! - 1994, APE (image+.cue), lossless - Скачать

Жанр: Disco
Год первоначального релиза: 1979
Год выпуска диска: 1994
Производитель диска: Hot Production Inc., USA
Аудио кодек: APE
Тип рипа: image+.cue
Битрейт аудио: lossless
Продолжительность: 35:31
Трэклист:
1. Panic / Save Me (Suite) (8:35)
2. We're The Right Combination / Right Combination (Suite) (8:58)
3. You Got Me Groovin' (5:04)
4. All Out Of Tears / Lovin' Tears (Suite) (7:08)
5. Mischief (5:41)

lossless, альбом, трек, высокое качество, поп, торрент, поп-музыка, музыка, бесплатно, скачать, torrent, download, альбом, песни, композиции, cd, pop-music, mp3, soundtrack, pop, дискография

French Kiss
By 1979 maestro Simon Soussan was a certified success. As a writer, producer, arranger, conducter and musician he had already created several disco classics and had developed his signature sound. Having racked up hits with Shalamar, Pattie Brooks and Arpeggio, his next outing was French Kiss.
Members: Lamarr Stevens, Muffi Durham, Yvette Johnson
Produced by: Simon Soussan
Discography:
1979 - Panic!
TAU Analyzer:


EAC:
Exact Audio Copy V0.99 prebeta 4 from 23. January 2008
Отчёт EAC об извлечении, выполненном 9. сентября 2009, 18:30
French Kiss / Panic
Дисковод: PIONEER DVD-RW DVR-109 Adapter: 0 ID: 1
Режим чтения : Достоверность
Использование точного потока : Да
Отключение кэша аудио : Да
Использование указателей C2 : Нет
Коррекция смещения при чтении : 48
Способность читать области Lead-in и Lead-out : Нет
Заполнение пропущенных сэмплов тишиной : Да
Удаление блоков с тишиной в начале и конце : Нет
При вычислениях CRC использовались нулевые сэмплы : Да
Интерфейс : Установленный внешний ASPI-интерфейс
Выходной формат : Внутренние WAV-операции
Формат сэмплов : 44.100 Гц; 16 бит; стерео
TOC извлечённого CD
Трек | Старт | Длительность | Начальный сектор | Конечный сектор
---------------------------------------------------------------------
1 | 0:00.00 | 8:37.25 | 0 | 38799
2 | 8:37.25 | 8:59.12 | 38800 | 79236
3 | 17:36.37 | 5:05.55 | 79237 | 102166
4 | 22:42.17 | 7:07.68 | 102167 | 134259
5 | 29:50.10 | 5:41.06 | 134260 | 159840
Характеристики диапазона извлечения и сообщения об ошибках
Выбранный диапазон
Имя файла C:\!!\French Kiss - Panic.wav
Пиковый уровень 100.0 %
Качество диапазона 100.0 %
CRC копии E75704CB
Копирование... OK
Ошибок не произошло
Конец отчёта

[234.4 MB] Скачать / Download