(Disco, Funk) Double Exposure - Ten Percent (1976) - 2012, FLAC (tracks+.cue), lossless - Скачать

Жанр: Disco, Funk
Носитель: CD
Год издания: 2012
Издатель (лейбл): Big Break Records
Номер по каталогу: CDBBR 0109
Аудиокодек: FLAC (*.flac)
Тип рипа: tracks+.cue
Битрейт аудио: lossless
Продолжительность: 77:19
Источник (релизер): другой трекер
Наличие сканов в содержимом раздачи: да
Треклист:
01. Ten Percent(7:06)
02. Gonna Give My Love Away(3:12)
03. Everyman(7:23)
04. Baby I Need Your Loving(5:45)
05. Just Can't Say Hello(3:15)
06. My Love Is Free(7:39)
07. Pick Me(3:23)
08. Ten Percent (Walter Gibbons 12' Disco Mix)(9:44)
09. Everyman (Has To Carry His Own Weight) (Joe Claussel 12' Disco Version)(9:57)
10. My Love Is Free (Tom Moulton 12' Disco Mix)(9:41)
11. Ten Percent (Single Mix)(3:05)
12. Everyman (Has To Carry His Own Weight) (Single Version)(2:45)
13. My Love Is Free (Single Version)(4:24)
 

альбом, lossless, pop, скачать, дискография, download, песни, высокое качество, cd, pop-music, mp3, торрент, torrent, трек, поп, бесплатно, музыка, композиции, альбом, soundtrack, поп-музыка

Big Break Records are delighted to continue our series of Salsoul Records reissues with the classic Double Exposure album "Ten Percent”.
Double Exposure were originally signed to Stax under the name United Image until they were introduced to Salsoul by producer Norman Harris who produced all three albums they recorded for Salsoul. Norman was part of Baker-Harris-Young Productions who worked with the likes of Whispers, The Trammps, Executive Suite and Love Committee.
Double Exposure were Salsoul’s premier male vocal group. TEN PERCENT and MY LOVE IS FREE are instantly recognisable dance classics. TEN PERCENT was one of the first commercially available 12” singles ever released!
TEN PERCENT, the album made the R&B top 40 whilst the classic single of the same name reached #2 in the Disco charts and is still a hit on dance floors today.
The follow up single EVERYMAN was a #8 Disco hit. MY LOVE IS FREE reached the #15 position in the Disco chart proving that Double Exposure could certainly deliver an album full of hits.
Released in deluxe Super Jewel cases, with bonus tracks Ten Percent is a must for all Disco and Soul fans.
 Exact Audio Copy V1.0 beta 3 from 29. August 2011
EAC extraction logfile from 11. September 2013, 8:25
Double Exposure / Ten Percent
Used drive : TSSTcorp CDDVDW Adapter: 0 ID: 0
Read mode : Secure
Utilize accurate stream : Yes
Defeat audio cache : Yes
Make use of C2 pointers : No
Read offset correction : 6
Overread into Lead-In and Lead-Out : No
Fill up missing offset samples with silence : Yes
Delete leading and trailing silent blocks : No
Null samples used in CRC calculations : Yes
Used interface : Native Win32 interface for Win NT & 2000
Gap handling : Appended to previous track
Used output format : User Defined Encoder
Selected bitrate : 128 kBit/s
Quality : High
Add ID3 tag : No
Command line compressor : C:\Program Files (x86)\Exact Audio Copy\Flac\flac.exe
Additional command line options : -8 -V -T "ARTIST=%artist%" -T "TITLE=%title%" -T "ALBUM=%albumtitle%" -T "DATE=%year%" -T "TRACKNUMBER=%tracknr%" -T "TOTALTRACKS=%numtracks%" -T "GENRE=%genre%" -T "ALBUMARTIST=%albumartist%" -T "ALBUM ARTIST=%albumartist%" -T "COMMENT=EAC Secure Mode, Test & Copy, AccurateRip, FLAC -8" %source%
TOC of the extracted CD
Track | Start | Length | Start sector | End sector
---------------------------------------------------------
1 | 0:00.00 | 7:06.11 | 0 | 31960
2 | 7:06.11 | 3:12.03 | 31961 | 46363
3 | 10:18.14 | 7:22.54 | 46364 | 79567
4 | 17:40.68 | 5:44.55 | 79568 | 105422
5 | 23:25.48 | 3:14.71 | 105423 | 120043
6 | 26:40.44 | 7:38.47 | 120044 | 154440
7 | 34:19.16 | 3:23.03 | 154441 | 169668
8 | 37:42.19 | 9:43.47 | 169669 | 213440
9 | 47:25.66 | 9:56.68 | 213441 | 258208
10 | 57:22.59 | 9:41.28 | 258209 | 301811
11 | 67:04.12 | 3:05.33 | 301812 | 315719
12 | 70:09.45 | 2:44.66 | 315720 | 328085
13 | 72:54.36 | 4:24.12 | 328086 | 347897
Track 1
Filename C:\AddisistheGodFlac\01 - Ten Percent.wav
Pre-gap length 0:00:02.00
Peak level 97.7 %
Extraction speed 3.1 X
Track quality 100.0 %
Test CRC 822E98CA
Copy CRC 822E98CA
Accurately ripped (confidence 3) [4E05EDF6] (AR v2)
Copy OK
Track 2
Filename C:\AddisistheGodFlac\02 - Gonna Give My Love Away.wav
Pre-gap length 0:00:01.56
Peak level 96.6 %
Extraction speed 3.3 X
Track quality 100.0 %
Test CRC 47C2C9D0
Copy CRC 47C2C9D0
Accurately ripped (confidence 3) [60BFA5C3] (AR v2)
Copy OK
Track 3
Filename C:\AddisistheGodFlac\03 - Everyman.wav
Pre-gap length 0:00:01.39
Peak level 96.6 %
Extraction speed 3.9 X
Track quality 100.0 %
Test CRC 45AB474D
Copy CRC 45AB474D
Accurately ripped (confidence 3) [3BE48E20] (AR v2)
Copy OK
Track 4
Filename C:\AddisistheGodFlac\04 - Baby I Need Your Loving.wav
Pre-gap length 0:00:01.46
Peak level 96.6 %
Extraction speed 4.2 X
Track quality 100.0 %
Test CRC C8F32592
Copy CRC C8F32592
Accurately ripped (confidence 3) [7B74888E] (AR v2)
Copy OK
Track 5
Filename C:\AddisistheGodFlac\05 - Just Can't Say Hello.wav
Pre-gap length 0:00:01.58
Peak level 96.6 %
Extraction speed 4.2 X
Track quality 100.0 %
Test CRC ACD88195
Copy CRC ACD88195
Accurately ripped (confidence 3) [0B32F510] (AR v2)
Copy OK
Track 6
Filename C:\AddisistheGodFlac\06 - My Love Is Free.wav
Pre-gap length 0:00:01.59
Peak level 96.6 %
Extraction speed 4.8 X
Track quality 100.0 %
Test CRC BBEF3220
Copy CRC BBEF3220
Accurately ripped (confidence 3) [05307BBC] (AR v2)
Copy OK
Track 7
Filename C:\AddisistheGodFlac\07 - Pick Me.wav
Pre-gap length 0:00:01.57
Peak level 96.6 %
Extraction speed 4.6 X
Track quality 100.0 %
Test CRC 70C4D04F
Copy CRC 70C4D04F
Accurately ripped (confidence 3) [F6053139] (AR v2)
Copy OK
Track 8
Filename C:\AddisistheGodFlac\08 - Ten Percent (Walter Gibbons 12' Disco Mix).wav
Pre-gap length 0:00:03.69
Peak level 96.6 %
Extraction speed 4.9 X
Track quality 99.9 %
Test CRC E3F57BFE
Copy CRC E3F57BFE
Accurately ripped (confidence 3) [4B7A702E] (AR v2)
Copy OK
Track 9
Filename C:\AddisistheGodFlac\09 - Everyman (Has To Carry His Own Weight) (Joe Claussel 12' Disco Version).wav
Pre-gap length 0:00:01.74
Peak level 94.9 %
Extraction speed 5.3 X
Track quality 99.9 %
Test CRC A13B6B67
Copy CRC A13B6B67
Accurately ripped (confidence 3) [C2FBD086] (AR v2)
Copy OK
Track 10
Filename C:\AddisistheGodFlac\10 - My Love Is Free (Tom Moulton 12' Disco Mix).wav
Pre-gap length 0:00:02.17
Peak level 96.6 %
Extraction speed 6.3 X
Track quality 100.0 %
Test CRC 72900BCD
Copy CRC 72900BCD
Accurately ripped (confidence 3) [D0A1859E] (AR v2)
Copy OK
Track 11
Filename C:\AddisistheGodFlac\11 - Ten Percent (Single Mix).wav
Pre-gap length 0:00:02.08
Peak level 96.6 %
Extraction speed 5.7 X
Track quality 100.0 %
Test CRC 085B26C1
Copy CRC 085B26C1
Accurately ripped (confidence 3) [9D549959] (AR v2)
Copy OK
Track 12
Filename C:\AddisistheGodFlac\12 - Everyman (Has To Carry His Own Weight) (Single Version).wav
Pre-gap length 0:00:01.73
Peak level 96.6 %
Extraction speed 5.6 X
Track quality 100.0 %
Test CRC 7E0554CB
Copy CRC 7E0554CB
Accurately ripped (confidence 3) [F6D4D9A1] (AR v2)
Copy OK
Track 13
Filename C:\AddisistheGodFlac\13 - My Love Is Free (Single Version).wav
Pre-gap length 0:00:01.40
Peak level 96.6 %
Extraction speed 6.2 X
Track quality 100.0 %
Test CRC FCBB36B8
Copy CRC FCBB36B8
Accurately ripped (confidence 3) [2D41E97B] (AR v2)
Copy OK
All tracks accurately ripped
No errors occurred
End of status report
==== Log checksum 6F869C057ACD412964091281F9F02B6B7B578A48128EE06DBE9BB14643ACBFB9 ====
 REM GENRE Soul
REM DATE 1976
REM DISCID 99121E0D
REM COMMENT "ExactAudioCopy v1.0b3"
PERFORMER "Double Exposure"
TITLE "Ten Percent"
FILE "01 - Ten Percent.wav" WAVE
TRACK 01 AUDIO
TITLE "Ten Percent"
PERFORMER "Double Exposure"
INDEX 01 00:00:00
TRACK 02 AUDIO
TITLE "Gonna Give My Love Away"
PERFORMER "Double Exposure"
INDEX 00 07:04:30
FILE "02 - Gonna Give My Love Away.wav" WAVE
INDEX 01 00:00:00
TRACK 03 AUDIO
TITLE "Everyman"
PERFORMER "Double Exposure"
INDEX 00 03:10:39
FILE "03 - Everyman.wav" WAVE
INDEX 01 00:00:00
TRACK 04 AUDIO
TITLE "Baby I Need Your Loving"
PERFORMER "Double Exposure"
INDEX 00 07:21:08
FILE "04 - Baby I Need Your Loving.wav" WAVE
INDEX 01 00:00:00
TRACK 05 AUDIO
TITLE "Just Can't Say Hello"
PERFORMER "Double Exposure"
INDEX 00 05:42:72
FILE "05 - Just Can't Say Hello.wav" WAVE
INDEX 01 00:00:00
TRACK 06 AUDIO
TITLE "My Love Is Free"
PERFORMER "Double Exposure"
INDEX 00 03:13:12
FILE "06 - My Love Is Free.wav" WAVE
INDEX 01 00:00:00
TRACK 07 AUDIO
TITLE "Pick Me"
PERFORMER "Double Exposure"
INDEX 00 07:36:65
FILE "07 - Pick Me.wav" WAVE
INDEX 01 00:00:00
TRACK 08 AUDIO
TITLE "Ten Percent (Walter Gibbons 12' Disco Mix)"
PERFORMER "Double Exposure"
INDEX 00 03:19:09
FILE "08 - Ten Percent (Walter Gibbons 12' Disco Mix).wav" WAVE
INDEX 01 00:00:00
TRACK 09 AUDIO
TITLE "Everyman (Has To Carry His Own Weight) (Joe Claussel 12' Disco Version)"
PERFORMER "Double Exposure"
INDEX 00 09:41:48
FILE "09 - Everyman (Has To Carry His Own Weight) (Joe Claussel 12' Disco Version).wav" WAVE
INDEX 01 00:00:00
TRACK 10 AUDIO
TITLE "My Love Is Free (Tom Moulton 12' Disco Mix)"
PERFORMER "Double Exposure"
INDEX 00 09:54:51
FILE "10 - My Love Is Free (Tom Moulton 12' Disco Mix).wav" WAVE
INDEX 01 00:00:00
TRACK 11 AUDIO
TITLE "Ten Percent (Single Mix)"
PERFORMER "Double Exposure"
INDEX 00 09:39:20
FILE "11 - Ten Percent (Single Mix).wav" WAVE
INDEX 01 00:00:00
TRACK 12 AUDIO
TITLE "Everyman (Has To Carry His Own Weight) (Single Version)"
PERFORMER "Double Exposure"
INDEX 00 03:03:35
FILE "12 - Everyman (Has To Carry His Own Weight) (Single Version).wav" WAVE
INDEX 01 00:00:00
TRACK 13 AUDIO
TITLE "My Love Is Free (Single Version)"
PERFORMER "Double Exposure"
INDEX 00 02:43:26
FILE "13 - My Love Is Free (Single Version).wav" WAVE
INDEX 01 00:00:00

[560.3 MB] Скачать / Download