(Disco/Funk/Italo-Disco) VA - I Love Funky Disco Vol.1,2 (4 CD) - 2004,2006, APE (image+.cue), lossless - Скачать

Жанр:Disco/Funk/Italo-Disco
Год выпуска диска:2004,2006
Производитель диска:Spain - Blanco Y Negro
Аудио кодек:APE
Тип рипа:image+.cue
Битрейт аудио:lossless
Продолжительность:4:57:29
Трэклист:Доп.информация:
Абсолютно все рипы сделаны с оригинальных CD из моей коллекции !!!
Полные сканы обложек и дисков прилагаются !!!
Blanco y Negro Music

torrent, песни, cd, поп-музыка, поп, трек, музыка, композиции, высокое качество, download, pop, альбом, pop-music, бесплатно, mp3, альбом, дискография, lossless, soundtrack, скачать, торрент

CD 1 - 1:13:53 :
01. Oliver Cheatham - Get Down On Saturday Night 7:36
02. Shalamar - There It Is 6:17
03. Change - Change Of Heart 7:06
04. Delegation - You And I 5:17
05. Debarge - Rhythm Of The Night 6:30
06. Kool & The Gang - Fresh 5:50
07. Jimmy 'Bo' Horne - Spank 6:58
08. Temper - No Favors 7:10
09. Deodato - S.O.S. Fire In The Sky 6:42
10. Rhetta Hughes - Angel Man (G.A.) 7:04
11. Koxo - Step By Step 7:24

CD 2 - 1:11:25 :
01. Rah Band - Clouds Across The Moon 6:44
02. Imagination - Just An Illusion 6:27
03. Yvonne Elliman - Love Pains 5:40
04. Tina Charles - I Love To Love 5:57
05. Peter Brown - They Only Come Out At Night 6:25
06. Stephanie Mills - The Medicine Song 6:42
07. Jaki Graham - Set Me Free 6:40
08. Zena Dejonay - I've Got To Find A Way 5:14
09. Sheryl Lee Ralph - In The Evening 6:18
10. Grandmaster Flash & Melle Mel - Whitelines 7:36
11. Timex Social Club - Rumors 7:43
CD 1 - 1:16:28 :
01. The Real Thing - You To Me Are Everything 6:07
02. The Whispers - It's A Love Thing 5:06
03. Kool And The Gang - Emergency 5:14
04. Donna Summer - Hot Stuff 6:42
05. Colonel Abrams - Trapped 6:30
06. Nick Straker Band - Straight Ahead 6:43
07. Gloria Gaynor - I Am What I Am 5:52
08. Gwen Guthrie - Ain't Nothin' Goin' On But The Rent 5:59
09. Shalamar - I Can Make You Feel Good 4:22
10. B.B.& Q. Band - Dreamer 5:44
11. Delegation - Put A Little Love On Me 8:11

CD 2 - 1:15:42 :
01. Oliver Cheatham - S.O.S. 6:36
02. L.I.F.E. - You're All Played Out 7:50
03. Midnight Star - Operator 7:17
04. Phyllis Nelson - I Like You 7:27
05. Cool Notes - Spend The Night 5:56
06. Imagination - Changes 5:47
07. Change - You Are My Melody 6:24
08. Grandmaster Flash & Furious Five - The Message 7:14
09. Firefly - Love (Is Gonna Be On Your Side) 7:09
10. Sharon Brown - I Specialize In Love 7:14
11. Ready For The World - Oh Sheila 6:49
Обратите внимание !!!
Материал выложен ИСКЛЮЧИТЕЛЬНО для ознакомления, так что не забудьте, пожалуйста,
удалить его с жёсткого диска после ознакомления, пойти в магазин и купить оригинальное издание !!!
Backs
Back - I Love Funky Disco Vol.1 (2 CD)
Back - I Love Funky Disco Vol.2 (2 CD)
Отчеты EAC
Отчеты EAC - I Love Funky Disco Vol.1 (2 CD)
Отчет EAC - I Love Funky Disco Vol.1 CD 1
Exact Audio Copy V0.99 prebeta 4 from 23. January 2008
Отчёт EAC об извлечении, выполненном 13. июля 2009, 14:34
Various / I Love Funky Disco Vol.1 CD 1
Дисковод: Optiarc DVD RW AD-5200A Adapter: 0 ID: 0
Режим чтения : Достоверность
Использование точного потока : Да
Отключение кэша аудио : Да
Использование указателей C2 : Нет
Коррекция смещения при чтении : 48
Способность читать области Lead-in и Lead-out : Нет
Заполнение пропущенных сэмплов тишиной : Да
Удаление блоков с тишиной в начале и конце : Нет
При вычислениях CRC использовались нулевые сэмплы : Да
Интерфейс : Установленный внешний ASPI-интерфейс
Выходной формат : Внутренние WAV-операции
Формат сэмплов : 44.100 Гц; 16 бит; стерео
TOC извлечённого CD
Трек | Старт | Длительность | Начальный сектор | Конечный сектор
---------------------------------------------------------------------
1 | 0:00.00 | 7:36.00 | 0 | 34199
2 | 7:36.00 | 6:17.00 | 34200 | 62474
3 | 13:53.00 | 7:06.00 | 62475 | 94424
4 | 20:59.00 | 5:16.45 | 94425 | 118169
5 | 26:15.45 | 6:30.00 | 118170 | 147419
6 | 32:45.45 | 5:50.11 | 147420 | 173680
7 | 38:35.56 | 6:58.16 | 173681 | 205046
8 | 45:33.72 | 7:10.03 | 205047 | 237299
9 | 52:44.00 | 6:41.40 | 237300 | 267414
10 | 59:25.40 | 7:04.00 | 267415 | 299214
11 | 66:29.40 | 7:24.17 | 299215 | 332531
Характеристики диапазона извлечения и сообщения об ошибках
Выбранный диапазон
Имя файла E:\Torrents.Ru - Projects\00 Various - I Love Funky Disco\Various - I Love Funky Disco\Various - I Love Funky Disco Vol.1\Various - I Love Funky Disco Vol.1 CD 1\Various - I Love Funky Disco Vol.1 CD 1.wav
Пиковый уровень 100.0 %
Качество диапазона 100.0 %
CRC копии C776CBAF
Копирование... OK
Ошибок не произошло
AccurateRip: сводка
Трек 1 точное извлечение (доверие 1) [4073E3DE]
Трек 2 точное извлечение (доверие 1) [8520F20C]
Трек 3 точное извлечение (доверие 1) [92F39C03]
Трек 4 точное извлечение (доверие 1) [5BD8E168]
Трек 5 точное извлечение (доверие 1) [D6367648]
Трек 6 точное извлечение (доверие 1) [7D93F336]
Трек 7 точное извлечение (доверие 1) [741FDCB0]
Трек 8 точное извлечение (доверие 1) [B06FB5DB]
Трек 9 точное извлечение (доверие 1) [4AB79910]
Трек 10 точное извлечение (доверие 1) [0C9A1B04]
Трек 11 точное извлечение (доверие 1) [6750CEDA]
Все треки извлечены точно
Конец отчёта
Отчет EAC - I Love Funky Disco Vol.1 CD 2
Exact Audio Copy V0.99 prebeta 4 from 23. January 2008
Отчёт EAC об извлечении, выполненном 13. июля 2009, 14:58
Various / I Love Funky Disco Vol.1 CD 2
Дисковод: Optiarc DVD RW AD-5200A Adapter: 0 ID: 0
Режим чтения : Достоверность
Использование точного потока : Да
Отключение кэша аудио : Да
Использование указателей C2 : Нет
Коррекция смещения при чтении : 48
Способность читать области Lead-in и Lead-out : Нет
Заполнение пропущенных сэмплов тишиной : Да
Удаление блоков с тишиной в начале и конце : Нет
При вычислениях CRC использовались нулевые сэмплы : Да
Интерфейс : Установленный внешний ASPI-интерфейс
Выходной формат : Внутренние WAV-операции
Формат сэмплов : 44.100 Гц; 16 бит; стерео
TOC извлечённого CD
Трек | Старт | Длительность | Начальный сектор | Конечный сектор
---------------------------------------------------------------------
1 | 0:00.00 | 6:43.50 | 0 | 30274
2 | 6:43.50 | 6:27.00 | 30275 | 59299
3 | 13:10.50 | 5:39.57 | 59300 | 84781
4 | 18:50.32 | 5:57.00 | 84782 | 111556
5 | 24:47.32 | 6:25.00 | 111557 | 140431
6 | 31:12.32 | 6:42.11 | 140432 | 170592
7 | 37:54.43 | 6:40.00 | 170593 | 200592
8 | 44:34.43 | 5:14.00 | 200593 | 224142
9 | 49:48.43 | 6:18.00 | 224143 | 252492
10 | 56:06.43 | 7:35.38 | 252493 | 286655
11 | 63:42.06 | 7:43.17 | 286656 | 321397
Характеристики диапазона извлечения и сообщения об ошибках
Выбранный диапазон
Имя файла E:\Torrents.Ru - Projects\00 Various - I Love Funky Disco\Various - I Love Funky Disco\Various - I Love Funky Disco Vol.1\Various - I Love Funky Disco Vol.1 CD 2\Various - I Love Funky Disco Vol.1 CD 2.wav
Пиковый уровень 100.0 %
Качество диапазона 99.9 %
CRC копии C42B8C42
Копирование... OK
Ошибок не произошло
AccurateRip: сводка
Трек 1 точное извлечение (доверие 1) [684CA5A6]
Трек 2 точное извлечение (доверие 1) [53DBE383]
Трек 3 точное извлечение (доверие 1) [046CCC39]
Трек 4 точное извлечение (доверие 1) [358733F1]
Трек 5 точное извлечение (доверие 1) [A17791C6]
Трек 6 точное извлечение (доверие 1) [6E064134]
Трек 7 точное извлечение (доверие 1) [548A8114]
Трек 8 точное извлечение (доверие 1) [D1F5EF81]
Трек 9 точное извлечение (доверие 1) [AA0A3AFF]
Трек 10 точное извлечение (доверие 1) [EA8A2A1D]
Трек 11 точное извлечение (доверие 1) [2924033F]
Все треки извлечены точно
Конец отчёта
Отчеты - I Love Funky Disco Vol.2 (2 CD)
Отчет EAC - I Love Funky Disco Vol.2 CD 1
Exact Audio Copy V0.99 prebeta 4 from 23. January 2008
Отчёт EAC об извлечении, выполненном 13. июля 2009, 15:26
Various / I Love Funky Disco Vol.2 CD 1
Дисковод: Optiarc DVD RW AD-5200A Adapter: 0 ID: 0
Режим чтения : Достоверность
Использование точного потока : Да
Отключение кэша аудио : Да
Использование указателей C2 : Нет
Коррекция смещения при чтении : 48
Способность читать области Lead-in и Lead-out : Нет
Заполнение пропущенных сэмплов тишиной : Да
Удаление блоков с тишиной в начале и конце : Нет
При вычислениях CRC использовались нулевые сэмплы : Да
Интерфейс : Установленный внешний ASPI-интерфейс
Выходной формат : Внутренние WAV-операции
Формат сэмплов : 44.100 Гц; 16 бит; стерео
TOC извлечённого CD
Трек | Старт | Длительность | Начальный сектор | Конечный сектор
---------------------------------------------------------------------
1 | 0:00.00 | 6:07.00 | 0 | 27524
2 | 6:07.00 | 5:06.00 | 27525 | 50474
3 | 11:13.00 | 5:13.63 | 50475 | 74012
4 | 16:26.63 | 6:42.32 | 74013 | 104194
5 | 23:09.20 | 6:29.62 | 104195 | 133431
6 | 29:39.07 | 6:43.21 | 133432 | 163677
7 | 36:22.28 | 5:52.16 | 163678 | 190093
8 | 42:14.44 | 5:58.38 | 190094 | 216981
9 | 48:13.07 | 4:21.53 | 216982 | 236609
10 | 52:34.60 | 5:44.00 | 236610 | 262409
11 | 58:18.60 | 8:10.58 | 262410 | 299217
Характеристики диапазона извлечения и сообщения об ошибках
Выбранный диапазон
Имя файла E:\Torrents.Ru - Projects\00 Various - I Love Funky Disco\Various - I Love Funky Disco\Various - I Love Funky Disco Vol.2\Various - I Love Funky Disco Vol.2 CD 1\Various - I Love Funky Disco Vol.2 CD 1.wav
Пиковый уровень 100.0 %
Качество диапазона 100.0 %
CRC копии CD8D1E63
Копирование... OK
Ошибок не произошло
AccurateRip: сводка
Трек 1 нет в базе данных
Трек 2 нет в базе данных
Трек 3 нет в базе данных
Трек 4 нет в базе данных
Трек 5 нет в базе данных
Трек 6 нет в базе данных
Трек 7 нет в базе данных
Трек 8 нет в базе данных
Трек 9 нет в базе данных
Трек 10 нет в базе данных
Трек 11 нет в базе данных
Ни одного трека нет в базе AccurateRip
Конец отчёта
Отчет EAC - I Love Funky Disco Vol.2 CD 2
Exact Audio Copy V0.99 prebeta 4 from 23. January 2008
Отчёт EAC об извлечении, выполненном 13. июля 2009, 16:31
Various / I Love Funky Disco Vol.2 CD 2
Дисковод: Optiarc DVD RW AD-5200A Adapter: 0 ID: 0
Режим чтения : Достоверность
Использование точного потока : Да
Отключение кэша аудио : Да
Использование указателей C2 : Нет
Коррекция смещения при чтении : 48
Способность читать области Lead-in и Lead-out : Нет
Заполнение пропущенных сэмплов тишиной : Да
Удаление блоков с тишиной в начале и конце : Нет
При вычислениях CRC использовались нулевые сэмплы : Да
Интерфейс : Установленный внешний ASPI-интерфейс
Выходной формат : Внутренние WAV-операции
Формат сэмплов : 44.100 Гц; 16 бит; стерео
TOC извлечённого CD
Трек | Старт | Длительность | Начальный сектор | Конечный сектор
---------------------------------------------------------------------
1 | 0:00.00 | 6:35.64 | 0 | 29688
2 | 6:35.64 | 7:50.06 | 29689 | 64944
3 | 14:25.70 | 7:17.01 | 64945 | 97720
4 | 21:42.71 | 7:27.00 | 97721 | 131245
5 | 29:09.71 | 5:55.64 | 131246 | 157934
6 | 35:05.60 | 5:46.60 | 157935 | 183944
7 | 40:52.45 | 6:23.60 | 183945 | 212729
8 | 47:16.30 | 7:13.70 | 212730 | 245274
9 | 54:30.25 | 7:09.00 | 245275 | 277449
10 | 61:39.25 | 7:14.00 | 277450 | 309999
11 | 68:53.25 | 6:49.00 | 310000 | 340674
Характеристики диапазона извлечения и сообщения об ошибках
Выбранный диапазон
Имя файла E:\Torrents.Ru - Projects\00 Various - I Love Funky Disco\Various - I Love Funky Disco\Various - I Love Funky Disco Vol.2\Various - I Love Funky Disco Vol.2 CD 2\Various - I Love Funky Disco Vol.2 CD 2.wav
Пиковый уровень 100.0 %
Качество диапазона 100.0 %
CRC копии 08252BDC
Копирование... OK
Ошибок не произошло
AccurateRip: сводка
Трек 1 нет в базе данных
Трек 2 нет в базе данных
Трек 3 нет в базе данных
Трек 4 нет в базе данных
Трек 5 нет в базе данных
Трек 6 нет в базе данных
Трек 7 нет в базе данных
Трек 8 нет в базе данных
Трек 9 нет в базе данных
Трек 10 нет в базе данных
Трек 11 нет в базе данных
Ни одного трека нет в базе AccurateRip
Конец отчёта
Материал выложен ИСКЛЮЧИТЕЛЬНО для ознакомления, так что не забудьте, пожалуйста,
удалить его с жёсткого диска после ознакомления, пойти в магазин и купить оригинальное издание !!!
Back - I Love Funky Disco Vol.1 (2 CD)
Back - I Love Funky Disco Vol.2 (2 CD)
Отчеты EAC - I Love Funky Disco Vol.1 (2 CD)
Отчет EAC - I Love Funky Disco Vol.1 CD 1
Exact Audio Copy V0.99 prebeta 4 from 23. January 2008
Отчёт EAC об извлечении, выполненном 13. июля 2009, 14:34
Various / I Love Funky Disco Vol.1 CD 1
Дисковод: Optiarc DVD RW AD-5200A Adapter: 0 ID: 0
Режим чтения : Достоверность
Использование точного потока : Да
Отключение кэша аудио : Да
Использование указателей C2 : Нет
Коррекция смещения при чтении : 48
Способность читать области Lead-in и Lead-out : Нет
Заполнение пропущенных сэмплов тишиной : Да
Удаление блоков с тишиной в начале и конце : Нет
При вычислениях CRC использовались нулевые сэмплы : Да
Интерфейс : Установленный внешний ASPI-интерфейс
Выходной формат : Внутренние WAV-операции
Формат сэмплов : 44.100 Гц; 16 бит; стерео
TOC извлечённого CD
Трек | Старт | Длительность | Начальный сектор | Конечный сектор
---------------------------------------------------------------------
1 | 0:00.00 | 7:36.00 | 0 | 34199
2 | 7:36.00 | 6:17.00 | 34200 | 62474
3 | 13:53.00 | 7:06.00 | 62475 | 94424
4 | 20:59.00 | 5:16.45 | 94425 | 118169
5 | 26:15.45 | 6:30.00 | 118170 | 147419
6 | 32:45.45 | 5:50.11 | 147420 | 173680
7 | 38:35.56 | 6:58.16 | 173681 | 205046
8 | 45:33.72 | 7:10.03 | 205047 | 237299
9 | 52:44.00 | 6:41.40 | 237300 | 267414
10 | 59:25.40 | 7:04.00 | 267415 | 299214
11 | 66:29.40 | 7:24.17 | 299215 | 332531
Характеристики диапазона извлечения и сообщения об ошибках
Выбранный диапазон
Имя файла E:\Torrents.Ru - Projects\00 Various - I Love Funky Disco\Various - I Love Funky Disco\Various - I Love Funky Disco Vol.1\Various - I Love Funky Disco Vol.1 CD 1\Various - I Love Funky Disco Vol.1 CD 1.wav
Пиковый уровень 100.0 %
Качество диапазона 100.0 %
CRC копии C776CBAF
Копирование... OK
Ошибок не произошло
AccurateRip: сводка
Трек 1 точное извлечение (доверие 1) [4073E3DE]
Трек 2 точное извлечение (доверие 1) [8520F20C]
Трек 3 точное извлечение (доверие 1) [92F39C03]
Трек 4 точное извлечение (доверие 1) [5BD8E168]
Трек 5 точное извлечение (доверие 1) [D6367648]
Трек 6 точное извлечение (доверие 1) [7D93F336]
Трек 7 точное извлечение (доверие 1) [741FDCB0]
Трек 8 точное извлечение (доверие 1) [B06FB5DB]
Трек 9 точное извлечение (доверие 1) [4AB79910]
Трек 10 точное извлечение (доверие 1) [0C9A1B04]
Трек 11 точное извлечение (доверие 1) [6750CEDA]
Все треки извлечены точно
Конец отчёта
Отчет EAC - I Love Funky Disco Vol.1 CD 2
Exact Audio Copy V0.99 prebeta 4 from 23. January 2008
Отчёт EAC об извлечении, выполненном 13. июля 2009, 14:58
Various / I Love Funky Disco Vol.1 CD 2
Дисковод: Optiarc DVD RW AD-5200A Adapter: 0 ID: 0
Режим чтения : Достоверность
Использование точного потока : Да
Отключение кэша аудио : Да
Использование указателей C2 : Нет
Коррекция смещения при чтении : 48
Способность читать области Lead-in и Lead-out : Нет
Заполнение пропущенных сэмплов тишиной : Да
Удаление блоков с тишиной в начале и конце : Нет
При вычислениях CRC использовались нулевые сэмплы : Да
Интерфейс : Установленный внешний ASPI-интерфейс
Выходной формат : Внутренние WAV-операции
Формат сэмплов : 44.100 Гц; 16 бит; стерео
TOC извлечённого CD
Трек | Старт | Длительность | Начальный сектор | Конечный сектор
---------------------------------------------------------------------
1 | 0:00.00 | 6:43.50 | 0 | 30274
2 | 6:43.50 | 6:27.00 | 30275 | 59299
3 | 13:10.50 | 5:39.57 | 59300 | 84781
4 | 18:50.32 | 5:57.00 | 84782 | 111556
5 | 24:47.32 | 6:25.00 | 111557 | 140431
6 | 31:12.32 | 6:42.11 | 140432 | 170592
7 | 37:54.43 | 6:40.00 | 170593 | 200592
8 | 44:34.43 | 5:14.00 | 200593 | 224142
9 | 49:48.43 | 6:18.00 | 224143 | 252492
10 | 56:06.43 | 7:35.38 | 252493 | 286655
11 | 63:42.06 | 7:43.17 | 286656 | 321397
Характеристики диапазона извлечения и сообщения об ошибках
Выбранный диапазон
Имя файла E:\Torrents.Ru - Projects\00 Various - I Love Funky Disco\Various - I Love Funky Disco\Various - I Love Funky Disco Vol.1\Various - I Love Funky Disco Vol.1 CD 2\Various - I Love Funky Disco Vol.1 CD 2.wav
Пиковый уровень 100.0 %
Качество диапазона 99.9 %
CRC копии C42B8C42
Копирование... OK
Ошибок не произошло
AccurateRip: сводка
Трек 1 точное извлечение (доверие 1) [684CA5A6]
Трек 2 точное извлечение (доверие 1) [53DBE383]
Трек 3 точное извлечение (доверие 1) [046CCC39]
Трек 4 точное извлечение (доверие 1) [358733F1]
Трек 5 точное извлечение (доверие 1) [A17791C6]
Трек 6 точное извлечение (доверие 1) [6E064134]
Трек 7 точное извлечение (доверие 1) [548A8114]
Трек 8 точное извлечение (доверие 1) [D1F5EF81]
Трек 9 точное извлечение (доверие 1) [AA0A3AFF]
Трек 10 точное извлечение (доверие 1) [EA8A2A1D]
Трек 11 точное извлечение (доверие 1) [2924033F]
Все треки извлечены точно
Конец отчёта
Отчеты - I Love Funky Disco Vol.2 (2 CD)
Отчет EAC - I Love Funky Disco Vol.2 CD 1
Exact Audio Copy V0.99 prebeta 4 from 23. January 2008
Отчёт EAC об извлечении, выполненном 13. июля 2009, 15:26
Various / I Love Funky Disco Vol.2 CD 1
Дисковод: Optiarc DVD RW AD-5200A Adapter: 0 ID: 0
Режим чтения : Достоверность
Использование точного потока : Да
Отключение кэша аудио : Да
Использование указателей C2 : Нет
Коррекция смещения при чтении : 48
Способность читать области Lead-in и Lead-out : Нет
Заполнение пропущенных сэмплов тишиной : Да
Удаление блоков с тишиной в начале и конце : Нет
При вычислениях CRC использовались нулевые сэмплы : Да
Интерфейс : Установленный внешний ASPI-интерфейс
Выходной формат : Внутренние WAV-операции
Формат сэмплов : 44.100 Гц; 16 бит; стерео
TOC извлечённого CD
Трек | Старт | Длительность | Начальный сектор | Конечный сектор
---------------------------------------------------------------------
1 | 0:00.00 | 6:07.00 | 0 | 27524
2 | 6:07.00 | 5:06.00 | 27525 | 50474
3 | 11:13.00 | 5:13.63 | 50475 | 74012
4 | 16:26.63 | 6:42.32 | 74013 | 104194
5 | 23:09.20 | 6:29.62 | 104195 | 133431
6 | 29:39.07 | 6:43.21 | 133432 | 163677
7 | 36:22.28 | 5:52.16 | 163678 | 190093
8 | 42:14.44 | 5:58.38 | 190094 | 216981
9 | 48:13.07 | 4:21.53 | 216982 | 236609
10 | 52:34.60 | 5:44.00 | 236610 | 262409
11 | 58:18.60 | 8:10.58 | 262410 | 299217
Характеристики диапазона извлечения и сообщения об ошибках
Выбранный диапазон
Имя файла E:\Torrents.Ru - Projects\00 Various - I Love Funky Disco\Various - I Love Funky Disco\Various - I Love Funky Disco Vol.2\Various - I Love Funky Disco Vol.2 CD 1\Various - I Love Funky Disco Vol.2 CD 1.wav
Пиковый уровень 100.0 %
Качество диапазона 100.0 %
CRC копии CD8D1E63
Копирование... OK
Ошибок не произошло
AccurateRip: сводка
Трек 1 нет в базе данных
Трек 2 нет в базе данных
Трек 3 нет в базе данных
Трек 4 нет в базе данных
Трек 5 нет в базе данных
Трек 6 нет в базе данных
Трек 7 нет в базе данных
Трек 8 нет в базе данных
Трек 9 нет в базе данных
Трек 10 нет в базе данных
Трек 11 нет в базе данных
Ни одного трека нет в базе AccurateRip
Конец отчёта
Отчет EAC - I Love Funky Disco Vol.2 CD 2
Exact Audio Copy V0.99 prebeta 4 from 23. January 2008
Отчёт EAC об извлечении, выполненном 13. июля 2009, 16:31
Various / I Love Funky Disco Vol.2 CD 2
Дисковод: Optiarc DVD RW AD-5200A Adapter: 0 ID: 0
Режим чтения : Достоверность
Использование точного потока : Да
Отключение кэша аудио : Да
Использование указателей C2 : Нет
Коррекция смещения при чтении : 48
Способность читать области Lead-in и Lead-out : Нет
Заполнение пропущенных сэмплов тишиной : Да
Удаление блоков с тишиной в начале и конце : Нет
При вычислениях CRC использовались нулевые сэмплы : Да
Интерфейс : Установленный внешний ASPI-интерфейс
Выходной формат : Внутренние WAV-операции
Формат сэмплов : 44.100 Гц; 16 бит; стерео
TOC извлечённого CD
Трек | Старт | Длительность | Начальный сектор | Конечный сектор
---------------------------------------------------------------------
1 | 0:00.00 | 6:35.64 | 0 | 29688
2 | 6:35.64 | 7:50.06 | 29689 | 64944
3 | 14:25.70 | 7:17.01 | 64945 | 97720
4 | 21:42.71 | 7:27.00 | 97721 | 131245
5 | 29:09.71 | 5:55.64 | 131246 | 157934
6 | 35:05.60 | 5:46.60 | 157935 | 183944
7 | 40:52.45 | 6:23.60 | 183945 | 212729
8 | 47:16.30 | 7:13.70 | 212730 | 245274
9 | 54:30.25 | 7:09.00 | 245275 | 277449
10 | 61:39.25 | 7:14.00 | 277450 | 309999
11 | 68:53.25 | 6:49.00 | 310000 | 340674
Характеристики диапазона извлечения и сообщения об ошибках
Выбранный диапазон
Имя файла E:\Torrents.Ru - Projects\00 Various - I Love Funky Disco\Various - I Love Funky Disco\Various - I Love Funky Disco Vol.2\Various - I Love Funky Disco Vol.2 CD 2\Various - I Love Funky Disco Vol.2 CD 2.wav
Пиковый уровень 100.0 %
Качество диапазона 100.0 %
CRC копии 08252BDC
Копирование... OK
Ошибок не произошло
AccurateRip: сводка
Трек 1 нет в базе данных
Трек 2 нет в базе данных
Трек 3 нет в базе данных
Трек 4 нет в базе данных
Трек 5 нет в базе данных
Трек 6 нет в базе данных
Трек 7 нет в базе данных
Трек 8 нет в базе данных
Трек 9 нет в базе данных
Трек 10 нет в базе данных
Трек 11 нет в базе данных
Ни одного трека нет в базе AccurateRip
Конец отчёта
Отчет EAC - I Love Funky Disco Vol.1 CD 1
Exact Audio Copy V0.99 prebeta 4 from 23. January 2008
Отчёт EAC об извлечении, выполненном 13. июля 2009, 14:34
Various / I Love Funky Disco Vol.1 CD 1
Дисковод: Optiarc DVD RW AD-5200A Adapter: 0 ID: 0
Режим чтения : Достоверность
Использование точного потока : Да
Отключение кэша аудио : Да
Использование указателей C2 : Нет
Коррекция смещения при чтении : 48
Способность читать области Lead-in и Lead-out : Нет
Заполнение пропущенных сэмплов тишиной : Да
Удаление блоков с тишиной в начале и конце : Нет
При вычислениях CRC использовались нулевые сэмплы : Да
Интерфейс : Установленный внешний ASPI-интерфейс
Выходной формат : Внутренние WAV-операции
Формат сэмплов : 44.100 Гц; 16 бит; стерео
TOC извлечённого CD
Трек | Старт | Длительность | Начальный сектор | Конечный сектор
---------------------------------------------------------------------
1 | 0:00.00 | 7:36.00 | 0 | 34199
2 | 7:36.00 | 6:17.00 | 34200 | 62474
3 | 13:53.00 | 7:06.00 | 62475 | 94424
4 | 20:59.00 | 5:16.45 | 94425 | 118169
5 | 26:15.45 | 6:30.00 | 118170 | 147419
6 | 32:45.45 | 5:50.11 | 147420 | 173680
7 | 38:35.56 | 6:58.16 | 173681 | 205046
8 | 45:33.72 | 7:10.03 | 205047 | 237299
9 | 52:44.00 | 6:41.40 | 237300 | 267414
10 | 59:25.40 | 7:04.00 | 267415 | 299214
11 | 66:29.40 | 7:24.17 | 299215 | 332531
Характеристики диапазона извлечения и сообщения об ошибках
Выбранный диапазон
Имя файла E:\Torrents.Ru - Projects\00 Various - I Love Funky Disco\Various - I Love Funky Disco\Various - I Love Funky Disco Vol.1\Various - I Love Funky Disco Vol.1 CD 1\Various - I Love Funky Disco Vol.1 CD 1.wav
Пиковый уровень 100.0 %
Качество диапазона 100.0 %
CRC копии C776CBAF
Копирование... OK
Ошибок не произошло
AccurateRip: сводка
Трек 1 точное извлечение (доверие 1) [4073E3DE]
Трек 2 точное извлечение (доверие 1) [8520F20C]
Трек 3 точное извлечение (доверие 1) [92F39C03]
Трек 4 точное извлечение (доверие 1) [5BD8E168]
Трек 5 точное извлечение (доверие 1) [D6367648]
Трек 6 точное извлечение (доверие 1) [7D93F336]
Трек 7 точное извлечение (доверие 1) [741FDCB0]
Трек 8 точное извлечение (доверие 1) [B06FB5DB]
Трек 9 точное извлечение (доверие 1) [4AB79910]
Трек 10 точное извлечение (доверие 1) [0C9A1B04]
Трек 11 точное извлечение (доверие 1) [6750CEDA]
Все треки извлечены точно
Конец отчёта
Отчет EAC - I Love Funky Disco Vol.1 CD 2
Exact Audio Copy V0.99 prebeta 4 from 23. January 2008
Отчёт EAC об извлечении, выполненном 13. июля 2009, 14:58
Various / I Love Funky Disco Vol.1 CD 2
Дисковод: Optiarc DVD RW AD-5200A Adapter: 0 ID: 0
Режим чтения : Достоверность
Использование точного потока : Да
Отключение кэша аудио : Да
Использование указателей C2 : Нет
Коррекция смещения при чтении : 48
Способность читать области Lead-in и Lead-out : Нет
Заполнение пропущенных сэмплов тишиной : Да
Удаление блоков с тишиной в начале и конце : Нет
При вычислениях CRC использовались нулевые сэмплы : Да
Интерфейс : Установленный внешний ASPI-интерфейс
Выходной формат : Внутренние WAV-операции
Формат сэмплов : 44.100 Гц; 16 бит; стерео
TOC извлечённого CD
Трек | Старт | Длительность | Начальный сектор | Конечный сектор
---------------------------------------------------------------------
1 | 0:00.00 | 6:43.50 | 0 | 30274
2 | 6:43.50 | 6:27.00 | 30275 | 59299
3 | 13:10.50 | 5:39.57 | 59300 | 84781
4 | 18:50.32 | 5:57.00 | 84782 | 111556
5 | 24:47.32 | 6:25.00 | 111557 | 140431
6 | 31:12.32 | 6:42.11 | 140432 | 170592
7 | 37:54.43 | 6:40.00 | 170593 | 200592
8 | 44:34.43 | 5:14.00 | 200593 | 224142
9 | 49:48.43 | 6:18.00 | 224143 | 252492
10 | 56:06.43 | 7:35.38 | 252493 | 286655
11 | 63:42.06 | 7:43.17 | 286656 | 321397
Характеристики диапазона извлечения и сообщения об ошибках
Выбранный диапазон
Имя файла E:\Torrents.Ru - Projects\00 Various - I Love Funky Disco\Various - I Love Funky Disco\Various - I Love Funky Disco Vol.1\Various - I Love Funky Disco Vol.1 CD 2\Various - I Love Funky Disco Vol.1 CD 2.wav
Пиковый уровень 100.0 %
Качество диапазона 99.9 %
CRC копии C42B8C42
Копирование... OK
Ошибок не произошло
AccurateRip: сводка
Трек 1 точное извлечение (доверие 1) [684CA5A6]
Трек 2 точное извлечение (доверие 1) [53DBE383]
Трек 3 точное извлечение (доверие 1) [046CCC39]
Трек 4 точное извлечение (доверие 1) [358733F1]
Трек 5 точное извлечение (доверие 1) [A17791C6]
Трек 6 точное извлечение (доверие 1) [6E064134]
Трек 7 точное извлечение (доверие 1) [548A8114]
Трек 8 точное извлечение (доверие 1) [D1F5EF81]
Трек 9 точное извлечение (доверие 1) [AA0A3AFF]
Трек 10 точное извлечение (доверие 1) [EA8A2A1D]
Трек 11 точное извлечение (доверие 1) [2924033F]
Все треки извлечены точно
Конец отчёта
Exact Audio Copy V0.99 prebeta 4 from 23. January 2008
Отчёт EAC об извлечении, выполненном 13. июля 2009, 14:34
Various / I Love Funky Disco Vol.1 CD 1
Дисковод: Optiarc DVD RW AD-5200A Adapter: 0 ID: 0
Режим чтения : Достоверность
Использование точного потока : Да
Отключение кэша аудио : Да
Использование указателей C2 : Нет
Коррекция смещения при чтении : 48
Способность читать области Lead-in и Lead-out : Нет
Заполнение пропущенных сэмплов тишиной : Да
Удаление блоков с тишиной в начале и конце : Нет
При вычислениях CRC использовались нулевые сэмплы : Да
Интерфейс : Установленный внешний ASPI-интерфейс
Выходной формат : Внутренние WAV-операции
Формат сэмплов : 44.100 Гц; 16 бит; стерео
TOC извлечённого CD
Трек | Старт | Длительность | Начальный сектор | Конечный сектор
---------------------------------------------------------------------
1 | 0:00.00 | 7:36.00 | 0 | 34199
2 | 7:36.00 | 6:17.00 | 34200 | 62474
3 | 13:53.00 | 7:06.00 | 62475 | 94424
4 | 20:59.00 | 5:16.45 | 94425 | 118169
5 | 26:15.45 | 6:30.00 | 118170 | 147419
6 | 32:45.45 | 5:50.11 | 147420 | 173680
7 | 38:35.56 | 6:58.16 | 173681 | 205046
8 | 45:33.72 | 7:10.03 | 205047 | 237299
9 | 52:44.00 | 6:41.40 | 237300 | 267414
10 | 59:25.40 | 7:04.00 | 267415 | 299214
11 | 66:29.40 | 7:24.17 | 299215 | 332531
Характеристики диапазона извлечения и сообщения об ошибках
Выбранный диапазон
Имя файла E:\Torrents.Ru - Projects\00 Various - I Love Funky Disco\Various - I Love Funky Disco\Various - I Love Funky Disco Vol.1\Various - I Love Funky Disco Vol.1 CD 1\Various - I Love Funky Disco Vol.1 CD 1.wav
Пиковый уровень 100.0 %
Качество диапазона 100.0 %
CRC копии C776CBAF
Копирование... OK
Ошибок не произошло
AccurateRip: сводка
Трек 1 точное извлечение (доверие 1) [4073E3DE]
Трек 2 точное извлечение (доверие 1) [8520F20C]
Трек 3 точное извлечение (доверие 1) [92F39C03]
Трек 4 точное извлечение (доверие 1) [5BD8E168]
Трек 5 точное извлечение (доверие 1) [D6367648]
Трек 6 точное извлечение (доверие 1) [7D93F336]
Трек 7 точное извлечение (доверие 1) [741FDCB0]
Трек 8 точное извлечение (доверие 1) [B06FB5DB]
Трек 9 точное извлечение (доверие 1) [4AB79910]
Трек 10 точное извлечение (доверие 1) [0C9A1B04]
Трек 11 точное извлечение (доверие 1) [6750CEDA]
Все треки извлечены точно
Конец отчёта
Exact Audio Copy V0.99 prebeta 4 from 23. January 2008
Отчёт EAC об извлечении, выполненном 13. июля 2009, 14:58
Various / I Love Funky Disco Vol.1 CD 2
Дисковод: Optiarc DVD RW AD-5200A Adapter: 0 ID: 0
Режим чтения : Достоверность
Использование точного потока : Да
Отключение кэша аудио : Да
Использование указателей C2 : Нет
Коррекция смещения при чтении : 48
Способность читать области Lead-in и Lead-out : Нет
Заполнение пропущенных сэмплов тишиной : Да
Удаление блоков с тишиной в начале и конце : Нет
При вычислениях CRC использовались нулевые сэмплы : Да
Интерфейс : Установленный внешний ASPI-интерфейс
Выходной формат : Внутренние WAV-операции
Формат сэмплов : 44.100 Гц; 16 бит; стерео
TOC извлечённого CD
Трек | Старт | Длительность | Начальный сектор | Конечный сектор
---------------------------------------------------------------------
1 | 0:00.00 | 6:43.50 | 0 | 30274
2 | 6:43.50 | 6:27.00 | 30275 | 59299
3 | 13:10.50 | 5:39.57 | 59300 | 84781
4 | 18:50.32 | 5:57.00 | 84782 | 111556
5 | 24:47.32 | 6:25.00 | 111557 | 140431
6 | 31:12.32 | 6:42.11 | 140432 | 170592
7 | 37:54.43 | 6:40.00 | 170593 | 200592
8 | 44:34.43 | 5:14.00 | 200593 | 224142
9 | 49:48.43 | 6:18.00 | 224143 | 252492
10 | 56:06.43 | 7:35.38 | 252493 | 286655
11 | 63:42.06 | 7:43.17 | 286656 | 321397
Характеристики диапазона извлечения и сообщения об ошибках
Выбранный диапазон
Имя файла E:\Torrents.Ru - Projects\00 Various - I Love Funky Disco\Various - I Love Funky Disco\Various - I Love Funky Disco Vol.1\Various - I Love Funky Disco Vol.1 CD 2\Various - I Love Funky Disco Vol.1 CD 2.wav
Пиковый уровень 100.0 %
Качество диапазона 99.9 %
CRC копии C42B8C42
Копирование... OK
Ошибок не произошло
AccurateRip: сводка
Трек 1 точное извлечение (доверие 1) [684CA5A6]
Трек 2 точное извлечение (доверие 1) [53DBE383]
Трек 3 точное извлечение (доверие 1) [046CCC39]
Трек 4 точное извлечение (доверие 1) [358733F1]
Трек 5 точное извлечение (доверие 1) [A17791C6]
Трек 6 точное извлечение (доверие 1) [6E064134]
Трек 7 точное извлечение (доверие 1) [548A8114]
Трек 8 точное извлечение (доверие 1) [D1F5EF81]
Трек 9 точное извлечение (доверие 1) [AA0A3AFF]
Трек 10 точное извлечение (доверие 1) [EA8A2A1D]
Трек 11 точное извлечение (доверие 1) [2924033F]
Все треки извлечены точно
Конец отчёта
Отчет EAC - I Love Funky Disco Vol.2 CD 1
Exact Audio Copy V0.99 prebeta 4 from 23. January 2008
Отчёт EAC об извлечении, выполненном 13. июля 2009, 15:26
Various / I Love Funky Disco Vol.2 CD 1
Дисковод: Optiarc DVD RW AD-5200A Adapter: 0 ID: 0
Режим чтения : Достоверность
Использование точного потока : Да
Отключение кэша аудио : Да
Использование указателей C2 : Нет
Коррекция смещения при чтении : 48
Способность читать области Lead-in и Lead-out : Нет
Заполнение пропущенных сэмплов тишиной : Да
Удаление блоков с тишиной в начале и конце : Нет
При вычислениях CRC использовались нулевые сэмплы : Да
Интерфейс : Установленный внешний ASPI-интерфейс
Выходной формат : Внутренние WAV-операции
Формат сэмплов : 44.100 Гц; 16 бит; стерео
TOC извлечённого CD
Трек | Старт | Длительность | Начальный сектор | Конечный сектор
---------------------------------------------------------------------
1 | 0:00.00 | 6:07.00 | 0 | 27524
2 | 6:07.00 | 5:06.00 | 27525 | 50474
3 | 11:13.00 | 5:13.63 | 50475 | 74012
4 | 16:26.63 | 6:42.32 | 74013 | 104194
5 | 23:09.20 | 6:29.62 | 104195 | 133431
6 | 29:39.07 | 6:43.21 | 133432 | 163677
7 | 36:22.28 | 5:52.16 | 163678 | 190093
8 | 42:14.44 | 5:58.38 | 190094 | 216981
9 | 48:13.07 | 4:21.53 | 216982 | 236609
10 | 52:34.60 | 5:44.00 | 236610 | 262409
11 | 58:18.60 | 8:10.58 | 262410 | 299217
Характеристики диапазона извлечения и сообщения об ошибках
Выбранный диапазон
Имя файла E:\Torrents.Ru - Projects\00 Various - I Love Funky Disco\Various - I Love Funky Disco\Various - I Love Funky Disco Vol.2\Various - I Love Funky Disco Vol.2 CD 1\Various - I Love Funky Disco Vol.2 CD 1.wav
Пиковый уровень 100.0 %
Качество диапазона 100.0 %
CRC копии CD8D1E63
Копирование... OK
Ошибок не произошло
AccurateRip: сводка
Трек 1 нет в базе данных
Трек 2 нет в базе данных
Трек 3 нет в базе данных
Трек 4 нет в базе данных
Трек 5 нет в базе данных
Трек 6 нет в базе данных
Трек 7 нет в базе данных
Трек 8 нет в базе данных
Трек 9 нет в базе данных
Трек 10 нет в базе данных
Трек 11 нет в базе данных
Ни одного трека нет в базе AccurateRip
Конец отчёта
Отчет EAC - I Love Funky Disco Vol.2 CD 2
Exact Audio Copy V0.99 prebeta 4 from 23. January 2008
Отчёт EAC об извлечении, выполненном 13. июля 2009, 16:31
Various / I Love Funky Disco Vol.2 CD 2
Дисковод: Optiarc DVD RW AD-5200A Adapter: 0 ID: 0
Режим чтения : Достоверность
Использование точного потока : Да
Отключение кэша аудио : Да
Использование указателей C2 : Нет
Коррекция смещения при чтении : 48
Способность читать области Lead-in и Lead-out : Нет
Заполнение пропущенных сэмплов тишиной : Да
Удаление блоков с тишиной в начале и конце : Нет
При вычислениях CRC использовались нулевые сэмплы : Да
Интерфейс : Установленный внешний ASPI-интерфейс
Выходной формат : Внутренние WAV-операции
Формат сэмплов : 44.100 Гц; 16 бит; стерео
TOC извлечённого CD
Трек | Старт | Длительность | Начальный сектор | Конечный сектор
---------------------------------------------------------------------
1 | 0:00.00 | 6:35.64 | 0 | 29688
2 | 6:35.64 | 7:50.06 | 29689 | 64944
3 | 14:25.70 | 7:17.01 | 64945 | 97720
4 | 21:42.71 | 7:27.00 | 97721 | 131245
5 | 29:09.71 | 5:55.64 | 131246 | 157934
6 | 35:05.60 | 5:46.60 | 157935 | 183944
7 | 40:52.45 | 6:23.60 | 183945 | 212729
8 | 47:16.30 | 7:13.70 | 212730 | 245274
9 | 54:30.25 | 7:09.00 | 245275 | 277449
10 | 61:39.25 | 7:14.00 | 277450 | 309999
11 | 68:53.25 | 6:49.00 | 310000 | 340674
Характеристики диапазона извлечения и сообщения об ошибках
Выбранный диапазон
Имя файла E:\Torrents.Ru - Projects\00 Various - I Love Funky Disco\Various - I Love Funky Disco\Various - I Love Funky Disco Vol.2\Various - I Love Funky Disco Vol.2 CD 2\Various - I Love Funky Disco Vol.2 CD 2.wav
Пиковый уровень 100.0 %
Качество диапазона 100.0 %
CRC копии 08252BDC
Копирование... OK
Ошибок не произошло
AccurateRip: сводка
Трек 1 нет в базе данных
Трек 2 нет в базе данных
Трек 3 нет в базе данных
Трек 4 нет в базе данных
Трек 5 нет в базе данных
Трек 6 нет в базе данных
Трек 7 нет в базе данных
Трек 8 нет в базе данных
Трек 9 нет в базе данных
Трек 10 нет в базе данных
Трек 11 нет в базе данных
Ни одного трека нет в базе AccurateRip
Конец отчёта
Exact Audio Copy V0.99 prebeta 4 from 23. January 2008
Отчёт EAC об извлечении, выполненном 13. июля 2009, 15:26
Various / I Love Funky Disco Vol.2 CD 1
Дисковод: Optiarc DVD RW AD-5200A Adapter: 0 ID: 0
Режим чтения : Достоверность
Использование точного потока : Да
Отключение кэша аудио : Да
Использование указателей C2 : Нет
Коррекция смещения при чтении : 48
Способность читать области Lead-in и Lead-out : Нет
Заполнение пропущенных сэмплов тишиной : Да
Удаление блоков с тишиной в начале и конце : Нет
При вычислениях CRC использовались нулевые сэмплы : Да
Интерфейс : Установленный внешний ASPI-интерфейс
Выходной формат : Внутренние WAV-операции
Формат сэмплов : 44.100 Гц; 16 бит; стерео
TOC извлечённого CD
Трек | Старт | Длительность | Начальный сектор | Конечный сектор
---------------------------------------------------------------------
1 | 0:00.00 | 6:07.00 | 0 | 27524
2 | 6:07.00 | 5:06.00 | 27525 | 50474
3 | 11:13.00 | 5:13.63 | 50475 | 74012
4 | 16:26.63 | 6:42.32 | 74013 | 104194
5 | 23:09.20 | 6:29.62 | 104195 | 133431
6 | 29:39.07 | 6:43.21 | 133432 | 163677
7 | 36:22.28 | 5:52.16 | 163678 | 190093
8 | 42:14.44 | 5:58.38 | 190094 | 216981
9 | 48:13.07 | 4:21.53 | 216982 | 236609
10 | 52:34.60 | 5:44.00 | 236610 | 262409
11 | 58:18.60 | 8:10.58 | 262410 | 299217
Характеристики диапазона извлечения и сообщения об ошибках
Выбранный диапазон
Имя файла E:\Torrents.Ru - Projects\00 Various - I Love Funky Disco\Various - I Love Funky Disco\Various - I Love Funky Disco Vol.2\Various - I Love Funky Disco Vol.2 CD 1\Various - I Love Funky Disco Vol.2 CD 1.wav
Пиковый уровень 100.0 %
Качество диапазона 100.0 %
CRC копии CD8D1E63
Копирование... OK
Ошибок не произошло
AccurateRip: сводка
Трек 1 нет в базе данных
Трек 2 нет в базе данных
Трек 3 нет в базе данных
Трек 4 нет в базе данных
Трек 5 нет в базе данных
Трек 6 нет в базе данных
Трек 7 нет в базе данных
Трек 8 нет в базе данных
Трек 9 нет в базе данных
Трек 10 нет в базе данных
Трек 11 нет в базе данных
Ни одного трека нет в базе AccurateRip
Конец отчёта
Exact Audio Copy V0.99 prebeta 4 from 23. January 2008
Отчёт EAC об извлечении, выполненном 13. июля 2009, 16:31
Various / I Love Funky Disco Vol.2 CD 2
Дисковод: Optiarc DVD RW AD-5200A Adapter: 0 ID: 0
Режим чтения : Достоверность
Использование точного потока : Да
Отключение кэша аудио : Да
Использование указателей C2 : Нет
Коррекция смещения при чтении : 48
Способность читать области Lead-in и Lead-out : Нет
Заполнение пропущенных сэмплов тишиной : Да
Удаление блоков с тишиной в начале и конце : Нет
При вычислениях CRC использовались нулевые сэмплы : Да
Интерфейс : Установленный внешний ASPI-интерфейс
Выходной формат : Внутренние WAV-операции
Формат сэмплов : 44.100 Гц; 16 бит; стерео
TOC извлечённого CD
Трек | Старт | Длительность | Начальный сектор | Конечный сектор
---------------------------------------------------------------------
1 | 0:00.00 | 6:35.64 | 0 | 29688
2 | 6:35.64 | 7:50.06 | 29689 | 64944
3 | 14:25.70 | 7:17.01 | 64945 | 97720
4 | 21:42.71 | 7:27.00 | 97721 | 131245
5 | 29:09.71 | 5:55.64 | 131246 | 157934
6 | 35:05.60 | 5:46.60 | 157935 | 183944
7 | 40:52.45 | 6:23.60 | 183945 | 212729
8 | 47:16.30 | 7:13.70 | 212730 | 245274
9 | 54:30.25 | 7:09.00 | 245275 | 277449
10 | 61:39.25 | 7:14.00 | 277450 | 309999
11 | 68:53.25 | 6:49.00 | 310000 | 340674
Характеристики диапазона извлечения и сообщения об ошибках
Выбранный диапазон
Имя файла E:\Torrents.Ru - Projects\00 Various - I Love Funky Disco\Various - I Love Funky Disco\Various - I Love Funky Disco Vol.2\Various - I Love Funky Disco Vol.2 CD 2\Various - I Love Funky Disco Vol.2 CD 2.wav
Пиковый уровень 100.0 %
Качество диапазона 100.0 %
CRC копии 08252BDC
Копирование... OK
Ошибок не произошло
AccurateRip: сводка
Трек 1 нет в базе данных
Трек 2 нет в базе данных
Трек 3 нет в базе данных
Трек 4 нет в базе данных
Трек 5 нет в базе данных
Трек 6 нет в базе данных
Трек 7 нет в базе данных
Трек 8 нет в базе данных
Трек 9 нет в базе данных
Трек 10 нет в базе данных
Трек 11 нет в базе данных
Ни одного трека нет в базе AccurateRip
Конец отчёта

[1.86 GB] Скачать / Download