(Disco / Funk) Nile Rodgers (2 Albums) 1983-1985 - Скачать

Nile Rodgers

Жанр: Disco / Funk || Страна: USA || Аудио кодек: FLAC || Тип рипа: tracks+.cue || Битрейт аудио: lossless || Продолжительность: 01:32:34 || Источник: what.cd

альбом, композиции, lossless, download, mp3, поп, дискография, скачать, трек, pop, музыка, torrent, soundtrack, поп-музыка, cd, песни, торрент, бесплатно, альбом, высокое качество, pop-music

01 - The Land Of The Good Groove (05:02)
02 - Yum-Yum (05:36)
03 - Beet (04:12)
04 - Get Her Crazy (06:02)
05 - It's All In Your Hands (04:49)
06 - Rock Bottom (05:46)
07 - My Love Song For You (04:24)
08 - Most Down (05:34)
09 - The Land Of The Good Groove (Extended Version) (06:43)
10 - Yum-Yum (Extended Version) (06:58)
LOG
 Exact Audio Copy V0.99 prebeta 5 from 4. May 2009
EAC extraction logfile from 12. May 2010, 20:15
Nile Rodgers / Adventures In The Land Of The Good Groove
Used drive : HL-DT-STDVDRAM GE20LU11 Adapter: 2 ID: 0
Read mode : Secure
Utilize accurate stream : Yes
Defeat audio cache : Yes
Make use of C2 pointers : No
Read offset correction : 667
Overread into Lead-In and Lead-Out : No
Fill up missing offset samples with silence : Yes
Delete leading and trailing silent blocks : No
Null samples used in CRC calculations : Yes
Used interface : Native Win32 interface for Win NT & 2000
Gap handling : Appended to previous track
Used output format : User Defined Encoder
Selected bitrate : 320 kBit/s
Quality : High
Add ID3 tag : No
Command line compressor : C:\Program Files (x86)\Exact Audio Copy\Flac\flac.exe
Additional command line options : -8 -V -T "ARTIST=%a" -T "TITLE=%t" -T "ALBUM=%g" -T "DATE=%y" -T "TRACKNUMBER=%n" -T "TOTALTRACKS=%x" -T "GENRE=%m" -T "ALBUMARTIST=%v" -T "ALBUM ARTIST=%v" -T "COMMENT=EAC Secure Mode, Test & Copy, AccurateRip, FLAC -8" %s
TOC of the extracted CD
Track | Start | Length | Start sector | End sector
---------------------------------------------------------
1 | 0:00.00 | 5:02.15 | 0 | 22664
2 | 5:02.15 | 5:36.16 | 22665 | 47880
3 | 10:38.31 | 4:12.26 | 47881 | 66806
4 | 14:50.57 | 6:01.46 | 66807 | 93927
5 | 20:52.28 | 4:48.43 | 93928 | 115570
6 | 25:40.71 | 5:45.55 | 115571 | 141500
7 | 31:26.51 | 4:24.17 | 141501 | 161317
8 | 35:50.68 | 5:34.05 | 161318 | 186372
9 | 41:24.73 | 6:42.63 | 186373 | 216585
10 | 48:07.61 | 6:57.58 | 216586 | 247918
Track 1
Filename C:\Users\Desktop\Nile Rodgers - Adventures In The Land Of The Good Groove\01 - The Land Of The Good Groove.wav
Pre-gap length 0:00:02.00
Peak level 99.9 %
Track quality 100.0 %
Test CRC 65A566A9
Copy CRC 65A566A9
Accurately ripped (confidence 1) [01701B69]
Copy OK
Track 2
Filename C:\Users\Desktop\Nile Rodgers - Adventures In The Land Of The Good Groove\02 - Yum-Yum.wav
Peak level 99.9 %
Track quality 100.0 %
Test CRC 903C53EC
Copy CRC 903C53EC
Accurately ripped (confidence 1) [FF2BA62B]
Copy OK
Track 3
Filename C:\Users\Desktop\Nile Rodgers - Adventures In The Land Of The Good Groove\03 - Beet.wav
Peak level 99.9 %
Track quality 99.9 %
Test CRC E7AB31C0
Copy CRC E7AB31C0
Accurately ripped (confidence 1) [7391BDEA]
Copy OK
Track 4
Filename C:\Users\Desktop\Nile Rodgers - Adventures In The Land Of The Good Groove\04 - Get Her Crazy.wav
Peak level 99.9 %
Track quality 99.9 %
Test CRC 2A899BAC
Copy CRC 2A899BAC
Accurately ripped (confidence 1) [01D137D7]
Copy OK
Track 5
Filename C:\Users\Desktop\Nile Rodgers - Adventures In The Land Of The Good Groove\05 - It's All In Your Hands.wav
Peak level 99.9 %
Track quality 99.9 %
Test CRC 528F9CB8
Copy CRC 528F9CB8
Accurately ripped (confidence 1) [A9F2DAB2]
Copy OK
Track 6
Filename C:\Users\Desktop\Nile Rodgers - Adventures In The Land Of The Good Groove\06 - Rock Bottom.wav
Peak level 99.9 %
Track quality 100.0 %
Test CRC BFA57476
Copy CRC BFA57476
Accurately ripped (confidence 1) [84092DEF]
Copy OK
Track 7
Filename C:\Users\Desktop\Nile Rodgers - Adventures In The Land Of The Good Groove\07 - My Love Song For You.wav
Peak level 99.9 %
Track quality 100.0 %
Test CRC 81DB5293
Copy CRC 81DB5293
Accurately ripped (confidence 1) [B0B5971D]
Copy OK
Track 8
Filename C:\Users\Desktop\Nile Rodgers - Adventures In The Land Of The Good Groove\08 - Most Down.wav
Peak level 99.9 %
Track quality 99.9 %
Test CRC B4EF8B07
Copy CRC B4EF8B07
Accurately ripped (confidence 1) [473326D3]
Copy OK
Track 9
Filename C:\Users\Desktop\Nile Rodgers - Adventures In The Land Of The Good Groove\09 - The Land Of The Good Groove (Extended Version).wav
Peak level 99.9 %
Track quality 100.0 %
Test CRC 85FCBE84
Copy CRC 85FCBE84
Accurately ripped (confidence 1) [37DDBACD]
Copy OK
Track 10
Filename C:\Users\Desktop\Nile Rodgers - Adventures In The Land Of The Good Groove\10 - Yum-Yum (Extended Version).wav
Peak level 99.9 %
Track quality 99.9 %
Test CRC 70EF3650
Copy CRC 70EF3650
Accurately ripped (confidence 1) [C2A6071B]
Copy OK
All tracks accurately ripped
No errors occurred
End of status report
CUE
 REM GENRE Funk
REM DATE 1983
REM DISCID 900CE90A
REM COMMENT "ExactAudioCopy v0.99pb5"
PERFORMER "Nile Rodgers"
TITLE "Adventures In The Land Of The Good Groove"
FILE "01 - The Land Of The Good Groove.wav" WAVE
TRACK 01 AUDIO
TITLE "The Land Of The Good Groove"
PERFORMER "Nile Rodgers"
INDEX 01 00:00:00
FILE "02 - Yum-Yum.wav" WAVE
TRACK 02 AUDIO
TITLE "Yum-Yum"
PERFORMER "Nile Rodgers"
INDEX 01 00:00:00
FILE "03 - Beet.wav" WAVE
TRACK 03 AUDIO
TITLE "Beet"
PERFORMER "Nile Rodgers"
INDEX 01 00:00:00
FILE "04 - Get Her Crazy.wav" WAVE
TRACK 04 AUDIO
TITLE "Get Her Crazy"
PERFORMER "Nile Rodgers"
INDEX 01 00:00:00
FILE "05 - It's All In Your Hands.wav" WAVE
TRACK 05 AUDIO
TITLE "It's All In Your Hands"
PERFORMER "Nile Rodgers"
INDEX 01 00:00:00
FILE "06 - Rock Bottom.wav" WAVE
TRACK 06 AUDIO
TITLE "Rock Bottom"
PERFORMER "Nile Rodgers"
INDEX 01 00:00:00
FILE "07 - My Love Song For You.wav" WAVE
TRACK 07 AUDIO
TITLE "My Love Song For You"
PERFORMER "Nile Rodgers"
INDEX 01 00:00:00
FILE "08 - Most Down.wav" WAVE
TRACK 08 AUDIO
TITLE "Most Down"
PERFORMER "Nile Rodgers"
INDEX 01 00:00:00
FILE "09 - The Land Of The Good Groove (Extended Version).wav" WAVE
TRACK 09 AUDIO
TITLE "The Land Of The Good Groove (Extended Version)"
PERFORMER "Nile Rodgers"
INDEX 01 00:00:00
FILE "10 - Yum-Yum (Extended Version).wav" WAVE
TRACK 10 AUDIO
TITLE "Yum-Yum (Extended Version)"
PERFORMER "Nile Rodgers"
INDEX 01 00:00:00
 Exact Audio Copy V0.99 prebeta 5 from 4. May 2009
EAC extraction logfile from 12. May 2010, 20:15
Nile Rodgers / Adventures In The Land Of The Good Groove
Used drive : HL-DT-STDVDRAM GE20LU11 Adapter: 2 ID: 0
Read mode : Secure
Utilize accurate stream : Yes
Defeat audio cache : Yes
Make use of C2 pointers : No
Read offset correction : 667
Overread into Lead-In and Lead-Out : No
Fill up missing offset samples with silence : Yes
Delete leading and trailing silent blocks : No
Null samples used in CRC calculations : Yes
Used interface : Native Win32 interface for Win NT & 2000
Gap handling : Appended to previous track
Used output format : User Defined Encoder
Selected bitrate : 320 kBit/s
Quality : High
Add ID3 tag : No
Command line compressor : C:\Program Files (x86)\Exact Audio Copy\Flac\flac.exe
Additional command line options : -8 -V -T "ARTIST=%a" -T "TITLE=%t" -T "ALBUM=%g" -T "DATE=%y" -T "TRACKNUMBER=%n" -T "TOTALTRACKS=%x" -T "GENRE=%m" -T "ALBUMARTIST=%v" -T "ALBUM ARTIST=%v" -T "COMMENT=EAC Secure Mode, Test & Copy, AccurateRip, FLAC -8" %s
TOC of the extracted CD
Track | Start | Length | Start sector | End sector
---------------------------------------------------------
1 | 0:00.00 | 5:02.15 | 0 | 22664
2 | 5:02.15 | 5:36.16 | 22665 | 47880
3 | 10:38.31 | 4:12.26 | 47881 | 66806
4 | 14:50.57 | 6:01.46 | 66807 | 93927
5 | 20:52.28 | 4:48.43 | 93928 | 115570
6 | 25:40.71 | 5:45.55 | 115571 | 141500
7 | 31:26.51 | 4:24.17 | 141501 | 161317
8 | 35:50.68 | 5:34.05 | 161318 | 186372
9 | 41:24.73 | 6:42.63 | 186373 | 216585
10 | 48:07.61 | 6:57.58 | 216586 | 247918
Track 1
Filename C:\Users\Desktop\Nile Rodgers - Adventures In The Land Of The Good Groove\01 - The Land Of The Good Groove.wav
Pre-gap length 0:00:02.00
Peak level 99.9 %
Track quality 100.0 %
Test CRC 65A566A9
Copy CRC 65A566A9
Accurately ripped (confidence 1) [01701B69]
Copy OK
Track 2
Filename C:\Users\Desktop\Nile Rodgers - Adventures In The Land Of The Good Groove\02 - Yum-Yum.wav
Peak level 99.9 %
Track quality 100.0 %
Test CRC 903C53EC
Copy CRC 903C53EC
Accurately ripped (confidence 1) [FF2BA62B]
Copy OK
Track 3
Filename C:\Users\Desktop\Nile Rodgers - Adventures In The Land Of The Good Groove\03 - Beet.wav
Peak level 99.9 %
Track quality 99.9 %
Test CRC E7AB31C0
Copy CRC E7AB31C0
Accurately ripped (confidence 1) [7391BDEA]
Copy OK
Track 4
Filename C:\Users\Desktop\Nile Rodgers - Adventures In The Land Of The Good Groove\04 - Get Her Crazy.wav
Peak level 99.9 %
Track quality 99.9 %
Test CRC 2A899BAC
Copy CRC 2A899BAC
Accurately ripped (confidence 1) [01D137D7]
Copy OK
Track 5
Filename C:\Users\Desktop\Nile Rodgers - Adventures In The Land Of The Good Groove\05 - It's All In Your Hands.wav
Peak level 99.9 %
Track quality 99.9 %
Test CRC 528F9CB8
Copy CRC 528F9CB8
Accurately ripped (confidence 1) [A9F2DAB2]
Copy OK
Track 6
Filename C:\Users\Desktop\Nile Rodgers - Adventures In The Land Of The Good Groove\06 - Rock Bottom.wav
Peak level 99.9 %
Track quality 100.0 %
Test CRC BFA57476
Copy CRC BFA57476
Accurately ripped (confidence 1) [84092DEF]
Copy OK
Track 7
Filename C:\Users\Desktop\Nile Rodgers - Adventures In The Land Of The Good Groove\07 - My Love Song For You.wav
Peak level 99.9 %
Track quality 100.0 %
Test CRC 81DB5293
Copy CRC 81DB5293
Accurately ripped (confidence 1) [B0B5971D]
Copy OK
Track 8
Filename C:\Users\Desktop\Nile Rodgers - Adventures In The Land Of The Good Groove\08 - Most Down.wav
Peak level 99.9 %
Track quality 99.9 %
Test CRC B4EF8B07
Copy CRC B4EF8B07
Accurately ripped (confidence 1) [473326D3]
Copy OK
Track 9
Filename C:\Users\Desktop\Nile Rodgers - Adventures In The Land Of The Good Groove\09 - The Land Of The Good Groove (Extended Version).wav
Peak level 99.9 %
Track quality 100.0 %
Test CRC 85FCBE84
Copy CRC 85FCBE84
Accurately ripped (confidence 1) [37DDBACD]
Copy OK
Track 10
Filename C:\Users\Desktop\Nile Rodgers - Adventures In The Land Of The Good Groove\10 - Yum-Yum (Extended Version).wav
Peak level 99.9 %
Track quality 99.9 %
Test CRC 70EF3650
Copy CRC 70EF3650
Accurately ripped (confidence 1) [C2A6071B]
Copy OK
All tracks accurately ripped
No errors occurred
End of status report
 REM GENRE Funk
REM DATE 1983
REM DISCID 900CE90A
REM COMMENT "ExactAudioCopy v0.99pb5"
PERFORMER "Nile Rodgers"
TITLE "Adventures In The Land Of The Good Groove"
FILE "01 - The Land Of The Good Groove.wav" WAVE
TRACK 01 AUDIO
TITLE "The Land Of The Good Groove"
PERFORMER "Nile Rodgers"
INDEX 01 00:00:00
FILE "02 - Yum-Yum.wav" WAVE
TRACK 02 AUDIO
TITLE "Yum-Yum"
PERFORMER "Nile Rodgers"
INDEX 01 00:00:00
FILE "03 - Beet.wav" WAVE
TRACK 03 AUDIO
TITLE "Beet"
PERFORMER "Nile Rodgers"
INDEX 01 00:00:00
FILE "04 - Get Her Crazy.wav" WAVE
TRACK 04 AUDIO
TITLE "Get Her Crazy"
PERFORMER "Nile Rodgers"
INDEX 01 00:00:00
FILE "05 - It's All In Your Hands.wav" WAVE
TRACK 05 AUDIO
TITLE "It's All In Your Hands"
PERFORMER "Nile Rodgers"
INDEX 01 00:00:00
FILE "06 - Rock Bottom.wav" WAVE
TRACK 06 AUDIO
TITLE "Rock Bottom"
PERFORMER "Nile Rodgers"
INDEX 01 00:00:00
FILE "07 - My Love Song For You.wav" WAVE
TRACK 07 AUDIO
TITLE "My Love Song For You"
PERFORMER "Nile Rodgers"
INDEX 01 00:00:00
FILE "08 - Most Down.wav" WAVE
TRACK 08 AUDIO
TITLE "Most Down"
PERFORMER "Nile Rodgers"
INDEX 01 00:00:00
FILE "09 - The Land Of The Good Groove (Extended Version).wav" WAVE
TRACK 09 AUDIO
TITLE "The Land Of The Good Groove (Extended Version)"
PERFORMER "Nile Rodgers"
INDEX 01 00:00:00
FILE "10 - Yum-Yum (Extended Version).wav" WAVE
TRACK 10 AUDIO
TITLE "Yum-Yum (Extended Version)"
PERFORMER "Nile Rodgers"
INDEX 01 00:00:00
01 - Plan-9 (04:16)
02 - State Your Mind (05:48)
03 - The Face In The Window (04:19)
04 - Doll Squad (03:55)
05 - Let's Go Out Tonight (05:21)
06 - Groove Master (04:43)
07 - Wavelength (03:55)
08 - Stay Out Of The Light (05:12)
LOG
 Exact Audio Copy V0.99 prebeta 4 from 23. January 2008
EAC extraction logfile from 25. March 2010, 22:47
Nile Rodgers / B-movie Matinee
Used drive : MATSHITADVD-R UJ-857D Adapter: 0 ID: 1
Read mode : Secure
Utilize accurate stream : Yes
Defeat audio cache : Yes
Make use of C2 pointers : No
Read offset correction : 102
Overread into Lead-In and Lead-Out : No
Fill up missing offset samples with silence : Yes
Delete leading and trailing silent blocks : No
Null samples used in CRC calculations : Yes
Used interface : Native Win32 interface for Win NT & 2000
Gap handling : Appended to previous track
Used output format : User Defined Encoder
Selected bitrate : 128 kBit/s
Quality : High
Add ID3 tag : No
Command line compressor : C:\Program Files\FLAC\flac.exe
Additional command line options : -V -8 -T \"artist=%a\" -T \"title=%t\" -T \"album=%g\" -T \"date=%y\" -T \"tracknumber=%n\" -T \"genre=%m\" %s
TOC of the extracted CD
Track | Start | Length | Start sector | End sector
---------------------------------------------------------
1 | 0:00.00 | 4:16.27 | 0 | 19226
2 | 4:16.27 | 5:48.00 | 19227 | 45326
3 | 10:04.27 | 4:18.73 | 45327 | 64749
4 | 14:23.25 | 3:55.37 | 64750 | 82411
5 | 18:18.62 | 5:20.38 | 82412 | 106449
6 | 23:39.25 | 4:42.40 | 106450 | 127639
7 | 28:21.65 | 3:55.22 | 127640 | 145286
8 | 32:17.12 | 5:12.00 | 145287 | 168686
Track 1
Filename Z:\rip by dollplay\01 - Plan-9.wav
Pre-gap length 0:00:02.00
Peak level 95.6 %
Track quality 99.9 %
Test CRC E36BF3BB
Copy CRC E36BF3BB
Track not present in AccurateRip database
Copy OK
Track 2
Filename Z:\rip by dollplay\02 - State Your Mind.wav
Peak level 100.0 %
Track quality 99.9 %
Test CRC 0EF86119
Copy CRC 0EF86119
Track not present in AccurateRip database
Copy OK
Track 3
Filename Z:\rip by dollplay\03 - The Face In The Window.wav
Pre-gap length 0:00:00.70
Peak level 100.0 %
Track quality 99.9 %
Test CRC 743D668B
Copy CRC 743D668B
Track not present in AccurateRip database
Copy OK
Track 4
Filename Z:\rip by dollplay\04 - Doll Squad.wav
Pre-gap length 0:00:01.13
Peak level 90.2 %
Track quality 100.0 %
Test CRC 0CF657E4
Copy CRC 0CF657E4
Track not present in AccurateRip database
Copy OK
Track 5
Filename Z:\rip by dollplay\05 - Let's Go Out Tonight.wav
Peak level 100.0 %
Track quality 100.0 %
Test CRC 58B7C0D4
Copy CRC 58B7C0D4
Track not present in AccurateRip database
Copy OK
Track 6
Filename Z:\rip by dollplay\06 - Groove Master.wav
Pre-gap length 0:00:01.05
Peak level 100.0 %
Track quality 100.0 %
Test CRC F83BB13A
Copy CRC F83BB13A
Track not present in AccurateRip database
Copy OK
Track 7
Filename Z:\rip by dollplay\07 - Wavelength.wav
Pre-gap length 0:00:00.53
Peak level 100.0 %
Track quality 100.0 %
Test CRC 3103D87E
Copy CRC 3103D87E
Track not present in AccurateRip database
Copy OK
Track 8
Filename Z:\rip by dollplay\08 - Stay Out Of The Light.wav
Pre-gap length 0:00:01.62
Peak level 98.7 %
Track quality 100.0 %
Test CRC FC513FA2
Copy CRC FC513FA2
Track not present in AccurateRip database
Copy OK
None of the tracks are present in the AccurateRip database
No errors occurred
End of status report
CUE
 REM GENRE Funk
REM DATE 1985
REM DISCID 5B08C908
REM COMMENT "ExactAudioCopy v0.99pb4"
PERFORMER "Nile Rodgers"
TITLE "B-movie Matinee"
FILE "01 - Plan-9.wav" WAVE
TRACK 01 AUDIO
TITLE "Plan-9"
PERFORMER "Nile Rodgers"
INDEX 01 00:00:00
FILE "02 - State Your Mind.wav" WAVE
TRACK 02 AUDIO
TITLE "State Your Mind"
PERFORMER "Nile Rodgers"
INDEX 01 00:00:00
TRACK 03 AUDIO
TITLE "The Face In The Window"
PERFORMER "Nile Rodgers"
INDEX 00 05:47:05
FILE "03 - The Face In The Window.wav" WAVE
INDEX 01 00:00:00
TRACK 04 AUDIO
TITLE "Doll Squad"
PERFORMER "Nile Rodgers"
INDEX 00 04:17:60
FILE "04 - Doll Squad.wav" WAVE
INDEX 01 00:00:00
FILE "05 - Let's Go Out Tonight.wav" WAVE
TRACK 05 AUDIO
TITLE "Let's Go Out Tonight"
PERFORMER "Nile Rodgers"
INDEX 01 00:00:00
TRACK 06 AUDIO
TITLE "Groove Master"
PERFORMER "Nile Rodgers"
INDEX 00 05:19:33
FILE "06 - Groove Master.wav" WAVE
INDEX 01 00:00:00
TRACK 07 AUDIO
TITLE "Wavelength"
PERFORMER "Nile Rodgers"
INDEX 00 04:41:62
FILE "07 - Wavelength.wav" WAVE
INDEX 01 00:00:00
TRACK 08 AUDIO
TITLE "Stay Out Of The Light"
PERFORMER "Nile Rodgers"
INDEX 00 03:53:35
FILE "08 - Stay Out Of The Light.wav" WAVE
INDEX 01 00:00:00
 Exact Audio Copy V0.99 prebeta 4 from 23. January 2008
EAC extraction logfile from 25. March 2010, 22:47
Nile Rodgers / B-movie Matinee
Used drive : MATSHITADVD-R UJ-857D Adapter: 0 ID: 1
Read mode : Secure
Utilize accurate stream : Yes
Defeat audio cache : Yes
Make use of C2 pointers : No
Read offset correction : 102
Overread into Lead-In and Lead-Out : No
Fill up missing offset samples with silence : Yes
Delete leading and trailing silent blocks : No
Null samples used in CRC calculations : Yes
Used interface : Native Win32 interface for Win NT & 2000
Gap handling : Appended to previous track
Used output format : User Defined Encoder
Selected bitrate : 128 kBit/s
Quality : High
Add ID3 tag : No
Command line compressor : C:\Program Files\FLAC\flac.exe
Additional command line options : -V -8 -T \"artist=%a\" -T \"title=%t\" -T \"album=%g\" -T \"date=%y\" -T \"tracknumber=%n\" -T \"genre=%m\" %s
TOC of the extracted CD
Track | Start | Length | Start sector | End sector
---------------------------------------------------------
1 | 0:00.00 | 4:16.27 | 0 | 19226
2 | 4:16.27 | 5:48.00 | 19227 | 45326
3 | 10:04.27 | 4:18.73 | 45327 | 64749
4 | 14:23.25 | 3:55.37 | 64750 | 82411
5 | 18:18.62 | 5:20.38 | 82412 | 106449
6 | 23:39.25 | 4:42.40 | 106450 | 127639
7 | 28:21.65 | 3:55.22 | 127640 | 145286
8 | 32:17.12 | 5:12.00 | 145287 | 168686
Track 1
Filename Z:\rip by dollplay\01 - Plan-9.wav
Pre-gap length 0:00:02.00
Peak level 95.6 %
Track quality 99.9 %
Test CRC E36BF3BB
Copy CRC E36BF3BB
Track not present in AccurateRip database
Copy OK
Track 2
Filename Z:\rip by dollplay\02 - State Your Mind.wav
Peak level 100.0 %
Track quality 99.9 %
Test CRC 0EF86119
Copy CRC 0EF86119
Track not present in AccurateRip database
Copy OK
Track 3
Filename Z:\rip by dollplay\03 - The Face In The Window.wav
Pre-gap length 0:00:00.70
Peak level 100.0 %
Track quality 99.9 %
Test CRC 743D668B
Copy CRC 743D668B
Track not present in AccurateRip database
Copy OK
Track 4
Filename Z:\rip by dollplay\04 - Doll Squad.wav
Pre-gap length 0:00:01.13
Peak level 90.2 %
Track quality 100.0 %
Test CRC 0CF657E4
Copy CRC 0CF657E4
Track not present in AccurateRip database
Copy OK
Track 5
Filename Z:\rip by dollplay\05 - Let's Go Out Tonight.wav
Peak level 100.0 %
Track quality 100.0 %
Test CRC 58B7C0D4
Copy CRC 58B7C0D4
Track not present in AccurateRip database
Copy OK
Track 6
Filename Z:\rip by dollplay\06 - Groove Master.wav
Pre-gap length 0:00:01.05
Peak level 100.0 %
Track quality 100.0 %
Test CRC F83BB13A
Copy CRC F83BB13A
Track not present in AccurateRip database
Copy OK
Track 7
Filename Z:\rip by dollplay\07 - Wavelength.wav
Pre-gap length 0:00:00.53
Peak level 100.0 %
Track quality 100.0 %
Test CRC 3103D87E
Copy CRC 3103D87E
Track not present in AccurateRip database
Copy OK
Track 8
Filename Z:\rip by dollplay\08 - Stay Out Of The Light.wav
Pre-gap length 0:00:01.62
Peak level 98.7 %
Track quality 100.0 %
Test CRC FC513FA2
Copy CRC FC513FA2
Track not present in AccurateRip database
Copy OK
None of the tracks are present in the AccurateRip database
No errors occurred
End of status report
 REM GENRE Funk
REM DATE 1985
REM DISCID 5B08C908
REM COMMENT "ExactAudioCopy v0.99pb4"
PERFORMER "Nile Rodgers"
TITLE "B-movie Matinee"
FILE "01 - Plan-9.wav" WAVE
TRACK 01 AUDIO
TITLE "Plan-9"
PERFORMER "Nile Rodgers"
INDEX 01 00:00:00
FILE "02 - State Your Mind.wav" WAVE
TRACK 02 AUDIO
TITLE "State Your Mind"
PERFORMER "Nile Rodgers"
INDEX 01 00:00:00
TRACK 03 AUDIO
TITLE "The Face In The Window"
PERFORMER "Nile Rodgers"
INDEX 00 05:47:05
FILE "03 - The Face In The Window.wav" WAVE
INDEX 01 00:00:00
TRACK 04 AUDIO
TITLE "Doll Squad"
PERFORMER "Nile Rodgers"
INDEX 00 04:17:60
FILE "04 - Doll Squad.wav" WAVE
INDEX 01 00:00:00
FILE "05 - Let's Go Out Tonight.wav" WAVE
TRACK 05 AUDIO
TITLE "Let's Go Out Tonight"
PERFORMER "Nile Rodgers"
INDEX 01 00:00:00
TRACK 06 AUDIO
TITLE "Groove Master"
PERFORMER "Nile Rodgers"
INDEX 00 05:19:33
FILE "06 - Groove Master.wav" WAVE
INDEX 01 00:00:00
TRACK 07 AUDIO
TITLE "Wavelength"
PERFORMER "Nile Rodgers"
INDEX 00 04:41:62
FILE "07 - Wavelength.wav" WAVE
INDEX 01 00:00:00
TRACK 08 AUDIO
TITLE "Stay Out Of The Light"
PERFORMER "Nile Rodgers"
INDEX 00 03:53:35
FILE "08 - Stay Out Of The Light.wav" WAVE
INDEX 01 00:00:00

[586.3 MB] Скачать / Download