(Disco, Funk, Pop) Shalamar - I Can Make You Feel Good-The Best of - 2012, FLAC (image+.cue), lossless - Скачать

Жанр: Disco, Funk, Pop
Страна-производитель диска: EU
Год издания: 2012
Издатель (лейбл): Spectrum Music
Номер по каталогу: SPEC2087
Аудиокодек: FLAC (*.flac)
Тип рипа: image+.cue
Битрейт аудио: lossless
Продолжительность: 1:16:36
Источник (релизер): Собственный фирменный CD
Наличие сканов в содержимом раздачи: да
Треклист:
01. I Can Make You Feel Good [0:04:02.18]
02. A Night To Remember [0:05:07.74]
03. Friends [0:05:02.25]
04. This Is for the Lover in You [0:05:01.68]
05. Over and Over [0:04:35.10]
06. There It Is [0:04:26.54]
07. Make That Move [0:03:48.02]
08. Dead Giveaway [0:03:31.14]
09. Disappearing Act [0:03:36.96]
10. I Owe You One [0:03:37.56]
11. Take That to the Bank [0:03:25.26]
12. Right in the Socket [0:04:37.77]
13. Sweeter As The Days Go By [0:03:47.20]
14. Uptown Festival [0:03:56.97]
15. The Second Time Around [0:03:41.37]
16. Deadline [0:05:58.00]
17. Attention To My Baby [0:04:34.06]
18. Dancing In The Sheets [0:03:46.62]

mp3, скачать, альбом, pop, альбом, поп-музыка, высокое качество, lossless, soundtrack, трек, композиции, бесплатно, cd, дискография, torrent, download, pop-music, песни, музыка, торрент, поп

 Exact Audio Copy V1.0 beta 3 from 29. August 2011
EAC extraction logfile from 5. July 2013, 21:13
Shalamar / I Can Make You Feel Good-The Best of
Used drive : PIONEER DVD-RW DVR-212 Adapter: 0 ID: 0
Read mode : Secure
Utilize accurate stream : Yes
Defeat audio cache : Yes
Make use of C2 pointers : No
Read offset correction : 48
Overread into Lead-In and Lead-Out : No
Fill up missing offset samples with silence : Yes
Delete leading and trailing silent blocks : No
Null samples used in CRC calculations : Yes
Used interface : Native Win32 interface for Win NT & 2000
Used output format : User Defined Encoder
Selected bitrate : 896 kBit/s
Quality : High
Add ID3 tag : Yes
Command line compressor : C:\Program Files\FLAC\flac.exe
Additional command line options : -V -8 -T "Date=%year%" -T "Genre=%genre%" %source%
TOC of the extracted CD
Track | Start | Length | Start sector | End sector
---------------------------------------------------------
1 | 0:00.00 | 4:02.14 | 0 | 18163
2 | 4:02.14 | 5:07.56 | 18164 | 41244
3 | 9:09.70 | 5:02.19 | 41245 | 63913
4 | 14:12.14 | 5:01.51 | 63914 | 86539
5 | 19:13.65 | 4:35.08 | 86540 | 107172
6 | 23:48.73 | 4:26.41 | 107173 | 127163
7 | 28:15.39 | 3:48.02 | 127164 | 144265
8 | 32:03.41 | 3:31.11 | 144266 | 160101
9 | 35:34.52 | 3:36.72 | 160102 | 176373
10 | 39:11.49 | 3:37.42 | 176374 | 192690
11 | 42:49.16 | 3:25.20 | 192691 | 208085
12 | 46:14.36 | 4:37.58 | 208086 | 228918
13 | 50:52.19 | 3:47.15 | 228919 | 245958
14 | 54:39.34 | 3:56.73 | 245959 | 263731
15 | 58:36.32 | 3:41.28 | 263732 | 280334
16 | 62:17.60 | 5:58.00 | 280335 | 307184
17 | 68:15.60 | 4:34.05 | 307185 | 327739
18 | 72:49.65 | 3:46.47 | 327740 | 344736
Range status and errors
Selected range
Filename E:\Import CD\Shalamar - I Can Make You Feel Good-The Best of.wav
Peak level 99.9 %
Extraction speed 8.4 X
Range quality 100.0 %
Test CRC 41892D13
Copy CRC 41892D13
Copy OK
No errors occurred
AccurateRip summary
Track 1 not present in database
Track 2 not present in database
Track 3 not present in database
Track 4 not present in database
Track 5 not present in database
Track 6 not present in database
Track 7 not present in database
Track 8 not present in database
Track 9 not present in database
Track 10 not present in database
Track 11 not present in database
Track 12 not present in database
Track 13 not present in database
Track 14 not present in database
Track 15 not present in database
Track 16 not present in database
Track 17 not present in database
Track 18 not present in database
None of the tracks are present in the AccurateRip database
End of status report
==== Log checksum 146A6482F5E2E10E6EFDFB133E951A11AFAD44CA0DA1B64EA47479186752D5EC ====

[564.8 MB] Скачать / Download