(Disco, Funk, Pop) VA - Sunshine Dance 2 - 1992, FLAC (image+.cue) lossless - Скачать

Жанр: Various
Страна-производитель диска: Germany
Год издания диска: 1992
Издатель (лейбл): Arcade
Номер по каталогу: 88010074
Аудио кодек: FLAC (*.flac)
Тип рипа: image+.cue
Битрейт аудио: lossless
Источник (релизер): Own Rip
Наличие сканов в содержимом раздачи: да
Треклист:

скачать, поп, композиции, бесплатно, дискография, песни, soundtrack, поп-музыка, музыка, альбом, download, pop-music, mp3, pop, cd, торрент, трек, альбом, torrent, lossless, высокое качество

01. Soul II Soul - Back To Life (However Do You Want Me)
02. Sydney Youngblood - If Only I Could
03. Neneh Cherry - Manchild
04. II Pride - Get Down
05. KC & The Sunshine Band - Please Don't Go
06. Laid Back - Sunshine Reggae
07. The Real Thing - You To Me Are Everything
08. Clout - Save Me
09. Kim Wilde - You Came
10. Rose Royce - Car Wash
11. Raul Orellana - The Real Wild House
12. Stars On 45 - Stars On 45
13. Holly Johnson - Americanos
14. Baltimora - Tarzan Boy
15. Twenty 4 Seven - I Can't Stand It
16. Joe Smooth - Promised Land
17. Heavy D & The Boyz - Now That We Found Love
Лог создания рипа
Exact Audio Copy V0.99 prebeta 5 from 4. May 2009
EAC extraction logfile from 19. April 2011, 23:05
Various / Sunshine Dance Volume 2 [Cd1]
Used drive : ASUS CRW-5232AX Adapter: 1 ID: 0
Read mode : Secure
Utilize accurate stream : Yes
Defeat audio cache : Yes
Make use of C2 pointers : No
Read offset correction : 6
Overread into Lead-In and Lead-Out : No
Fill up missing offset samples with silence : Yes
Delete leading and trailing silent blocks : No
Null samples used in CRC calculations : Yes
Used interface : Native Win32 interface for Win NT & 2000
Used output format : Internal WAV Routines
Sample format : 44.100 Hz; 16 Bit; Stereo
Use compression offset : 0
TOC of the extracted CD
Track | Start | Length | Start sector | End sector
---------------------------------------------------------
1 | 0:00.33 | 3:47.67 | 33 | 17124
2 | 3:48.25 | 3:29.38 | 17125 | 32837
3 | 7:17.63 | 3:52.55 | 32838 | 50292
4 | 11:10.43 | 3:48.70 | 50293 | 67462
5 | 14:59.38 | 3:47.02 | 67463 | 84489
6 | 18:46.40 | 4:14.25 | 84490 | 103564
7 | 23:00.65 | 3:22.18 | 103565 | 118732
8 | 26:23.08 | 4:13.27 | 118733 | 137734
9 | 30:36.35 | 4:33.45 | 137735 | 158254
10 | 35:10.05 | 4:58.48 | 158255 | 180652
11 | 40:08.53 | 3:18.72 | 180653 | 195574
12 | 43:27.50 | 4:49.70 | 195575 | 217319
13 | 48:17.45 | 3:36.30 | 217320 | 233549
14 | 51:54.00 | 3:44.13 | 233550 | 250362
15 | 55:38.13 | 4:07.37 | 250363 | 268924
16 | 59:45.50 | 5:07.35 | 268925 | 291984
17 | 64:53.10 | 4:17.23 | 291985 | 311282
Range status and errors
Selected range
Filename C:\Users\Yulyo\Desktop\Sunshine Dance 2 [1992]\Sunshine Dance 2 [Cd1]\Various - Sunshine Dance Volume 2 [Cd1].wav
Peak level 94.0 %
Range quality 99.9 %
Test CRC 5CECCBF5
Copy CRC 5CECCBF5
Copy OK
No errors occurred
AccurateRip summary
Track 1 not present in database
Track 2 not present in database
Track 3 not present in database
Track 4 not present in database
Track 5 not present in database
Track 6 not present in database
Track 7 not present in database
Track 8 not present in database
Track 9 not present in database
Track 10 not present in database
Track 11 not present in database
Track 12 not present in database
Track 13 not present in database
Track 14 not present in database
Track 15 not present in database
Track 16 not present in database
Track 17 not present in database
None of the tracks are present in the AccurateRip database
End of status report
Содержание индексной карты (.CUE)
 REM GENRE Dance
REM DATE 1992
REM DISCID F0103611
REM COMMENT "ExactAudioCopy v0.99pb5"
PERFORMER "Various"
TITLE "Sunshine Dance Volume 2 [Cd1]"
FILE "Various - Sunshine Dance Volume 2 [Cd1].wav" WAVE
TRACK 01 AUDIO
TITLE "Back To Life (However Do You Want Me)"
PERFORMER "Soul II Soul"
INDEX 00 00:00:00
INDEX 01 00:00:33
TRACK 02 AUDIO
TITLE "If Only I Could"
PERFORMER "Sydney Youngblood"
INDEX 00 03:47:48
INDEX 01 03:48:25
TRACK 03 AUDIO
TITLE "Manchild"
PERFORMER "Neneh Cherry"
INDEX 00 07:17:08
INDEX 01 07:17:63
TRACK 04 AUDIO
TITLE "Get Down"
PERFORMER "II Pride"
INDEX 00 11:09:30
INDEX 01 11:10:43
TRACK 05 AUDIO
TITLE "Please Don't Go"
PERFORMER "K.C. & The Sunshine Band"
INDEX 00 14:58:38
INDEX 01 14:59:38
TRACK 06 AUDIO
TITLE "Sunshine Reggae"
PERFORMER "Laid Back"
INDEX 00 18:45:60
INDEX 01 18:46:40
TRACK 07 AUDIO
TITLE "You To Me Are Everything"
PERFORMER "The Real Thing"
INDEX 00 23:00:08
INDEX 01 23:00:65
TRACK 08 AUDIO
TITLE "Save Me"
PERFORMER "Clout"
INDEX 00 26:22:65
INDEX 01 26:23:08
TRACK 09 AUDIO
TITLE "You Came"
PERFORMER "Kim Wilde"
INDEX 00 30:35:43
INDEX 01 30:36:35
TRACK 10 AUDIO
TITLE "Car Wash"
PERFORMER "Rose Royce"
INDEX 00 35:09:30
INDEX 01 35:10:05
TRACK 11 AUDIO
TITLE "The Real Wild House"
PERFORMER "Raul Orellana"
INDEX 00 40:08:05
INDEX 01 40:08:53
TRACK 12 AUDIO
TITLE "Stars On 45"
PERFORMER "Stars On 45"
INDEX 00 43:26:69
INDEX 01 43:27:50
TRACK 13 AUDIO
TITLE "Americanos"
PERFORMER "Holly Johnson"
INDEX 00 48:16:63
INDEX 01 48:17:45
TRACK 14 AUDIO
TITLE "Tarzan Boy"
PERFORMER "Baltimora"
INDEX 00 51:53:35
INDEX 01 51:54:00
TRACK 15 AUDIO
TITLE "I Can't Stand It"
PERFORMER "Twenty 4 Seven"
INDEX 00 55:37:30
INDEX 01 55:38:13
TRACK 16 AUDIO
TITLE "Promised Land"
PERFORMER "Joe Smooth"
INDEX 00 59:45:10
INDEX 01 59:45:50
TRACK 17 AUDIO
TITLE "Now That We Found Love"
PERFORMER "Heavy D & The Boyz"
INDEX 00 64:52:48
INDEX 01 64:53:10
Лог проверки качества
 Started at: Wednesday, 20. 04. 2011. - 17:54.56
1 file found
1 -===- C:\Users\Yulyo\Desktop\Sunshine Dance 2 [1992]\Sunshine Dance 2 [Cd1]\Various - Sunshine Dance Volume 2 [Cd1].wav
Conclusion: this track is CDDA with probability 100%
Finished at: Wednesday, 20. 04. 2011. - 18:00.37 (operation time: 0:05.40)
Exact Audio Copy V0.99 prebeta 5 from 4. May 2009
EAC extraction logfile from 19. April 2011, 23:05
Various / Sunshine Dance Volume 2 [Cd1]
Used drive : ASUS CRW-5232AX Adapter: 1 ID: 0
Read mode : Secure
Utilize accurate stream : Yes
Defeat audio cache : Yes
Make use of C2 pointers : No
Read offset correction : 6
Overread into Lead-In and Lead-Out : No
Fill up missing offset samples with silence : Yes
Delete leading and trailing silent blocks : No
Null samples used in CRC calculations : Yes
Used interface : Native Win32 interface for Win NT & 2000
Used output format : Internal WAV Routines
Sample format : 44.100 Hz; 16 Bit; Stereo
Use compression offset : 0
TOC of the extracted CD
Track | Start | Length | Start sector | End sector
---------------------------------------------------------
1 | 0:00.33 | 3:47.67 | 33 | 17124
2 | 3:48.25 | 3:29.38 | 17125 | 32837
3 | 7:17.63 | 3:52.55 | 32838 | 50292
4 | 11:10.43 | 3:48.70 | 50293 | 67462
5 | 14:59.38 | 3:47.02 | 67463 | 84489
6 | 18:46.40 | 4:14.25 | 84490 | 103564
7 | 23:00.65 | 3:22.18 | 103565 | 118732
8 | 26:23.08 | 4:13.27 | 118733 | 137734
9 | 30:36.35 | 4:33.45 | 137735 | 158254
10 | 35:10.05 | 4:58.48 | 158255 | 180652
11 | 40:08.53 | 3:18.72 | 180653 | 195574
12 | 43:27.50 | 4:49.70 | 195575 | 217319
13 | 48:17.45 | 3:36.30 | 217320 | 233549
14 | 51:54.00 | 3:44.13 | 233550 | 250362
15 | 55:38.13 | 4:07.37 | 250363 | 268924
16 | 59:45.50 | 5:07.35 | 268925 | 291984
17 | 64:53.10 | 4:17.23 | 291985 | 311282
Range status and errors
Selected range
Filename C:\Users\Yulyo\Desktop\Sunshine Dance 2 [1992]\Sunshine Dance 2 [Cd1]\Various - Sunshine Dance Volume 2 [Cd1].wav
Peak level 94.0 %
Range quality 99.9 %
Test CRC 5CECCBF5
Copy CRC 5CECCBF5
Copy OK
No errors occurred
AccurateRip summary
Track 1 not present in database
Track 2 not present in database
Track 3 not present in database
Track 4 not present in database
Track 5 not present in database
Track 6 not present in database
Track 7 not present in database
Track 8 not present in database
Track 9 not present in database
Track 10 not present in database
Track 11 not present in database
Track 12 not present in database
Track 13 not present in database
Track 14 not present in database
Track 15 not present in database
Track 16 not present in database
Track 17 not present in database
None of the tracks are present in the AccurateRip database
End of status report
 REM GENRE Dance
REM DATE 1992
REM DISCID F0103611
REM COMMENT "ExactAudioCopy v0.99pb5"
PERFORMER "Various"
TITLE "Sunshine Dance Volume 2 [Cd1]"
FILE "Various - Sunshine Dance Volume 2 [Cd1].wav" WAVE
TRACK 01 AUDIO
TITLE "Back To Life (However Do You Want Me)"
PERFORMER "Soul II Soul"
INDEX 00 00:00:00
INDEX 01 00:00:33
TRACK 02 AUDIO
TITLE "If Only I Could"
PERFORMER "Sydney Youngblood"
INDEX 00 03:47:48
INDEX 01 03:48:25
TRACK 03 AUDIO
TITLE "Manchild"
PERFORMER "Neneh Cherry"
INDEX 00 07:17:08
INDEX 01 07:17:63
TRACK 04 AUDIO
TITLE "Get Down"
PERFORMER "II Pride"
INDEX 00 11:09:30
INDEX 01 11:10:43
TRACK 05 AUDIO
TITLE "Please Don't Go"
PERFORMER "K.C. & The Sunshine Band"
INDEX 00 14:58:38
INDEX 01 14:59:38
TRACK 06 AUDIO
TITLE "Sunshine Reggae"
PERFORMER "Laid Back"
INDEX 00 18:45:60
INDEX 01 18:46:40
TRACK 07 AUDIO
TITLE "You To Me Are Everything"
PERFORMER "The Real Thing"
INDEX 00 23:00:08
INDEX 01 23:00:65
TRACK 08 AUDIO
TITLE "Save Me"
PERFORMER "Clout"
INDEX 00 26:22:65
INDEX 01 26:23:08
TRACK 09 AUDIO
TITLE "You Came"
PERFORMER "Kim Wilde"
INDEX 00 30:35:43
INDEX 01 30:36:35
TRACK 10 AUDIO
TITLE "Car Wash"
PERFORMER "Rose Royce"
INDEX 00 35:09:30
INDEX 01 35:10:05
TRACK 11 AUDIO
TITLE "The Real Wild House"
PERFORMER "Raul Orellana"
INDEX 00 40:08:05
INDEX 01 40:08:53
TRACK 12 AUDIO
TITLE "Stars On 45"
PERFORMER "Stars On 45"
INDEX 00 43:26:69
INDEX 01 43:27:50
TRACK 13 AUDIO
TITLE "Americanos"
PERFORMER "Holly Johnson"
INDEX 00 48:16:63
INDEX 01 48:17:45
TRACK 14 AUDIO
TITLE "Tarzan Boy"
PERFORMER "Baltimora"
INDEX 00 51:53:35
INDEX 01 51:54:00
TRACK 15 AUDIO
TITLE "I Can't Stand It"
PERFORMER "Twenty 4 Seven"
INDEX 00 55:37:30
INDEX 01 55:38:13
TRACK 16 AUDIO
TITLE "Promised Land"
PERFORMER "Joe Smooth"
INDEX 00 59:45:10
INDEX 01 59:45:50
TRACK 17 AUDIO
TITLE "Now That We Found Love"
PERFORMER "Heavy D & The Boyz"
INDEX 00 64:52:48
INDEX 01 64:53:10
 Started at: Wednesday, 20. 04. 2011. - 17:54.56
1 file found
1 -===- C:\Users\Yulyo\Desktop\Sunshine Dance 2 [1992]\Sunshine Dance 2 [Cd1]\Various - Sunshine Dance Volume 2 [Cd1].wav
Conclusion: this track is CDDA with probability 100%
Finished at: Wednesday, 20. 04. 2011. - 18:00.37 (operation time: 0:05.40)
01. Paula Abdul - Straight Up
02. Adamski - Killer
03. Positive Vibe - Best Of My Love
04. Chariff - I Love Your Smile
05. Village People - YMCA
06. Tracey Ullman - Breakaway
07. Two Man Sound - Disco Samba
08. Honesty 69 - French Kiss
09. Inner City - Goodlife
10. Steve Miller - Give It Up
11. Shannon - Let The Music Play
12. Jennifer Miles - Take My Breath Away (Mix '92)
13. Showaddywaddy - Under The Moon Of Love
14. Tony Esposito - Kalimba De Luna (Mix '92)
15. Steve Allen - Love Is In The Air
16. Black Machine - How Gee
17. Men Without Hats - Safety Dance
Лог создания рипа
Exact Audio Copy V0.99 prebeta 5 from 4. May 2009
EAC extraction logfile from 20. April 2011, 17:53
Various / Sunshine Dance Volume 2 [Cd2]
Used drive : ASUS CRW-5232AX Adapter: 1 ID: 0
Read mode : Secure
Utilize accurate stream : Yes
Defeat audio cache : Yes
Make use of C2 pointers : No
Read offset correction : 6
Overread into Lead-In and Lead-Out : No
Fill up missing offset samples with silence : Yes
Delete leading and trailing silent blocks : No
Null samples used in CRC calculations : Yes
Used interface : Native Win32 interface for Win NT & 2000
Used output format : Internal WAV Routines
Sample format : 44.100 Hz; 16 Bit; Stereo
Use compression offset : 0
TOC of the extracted CD
Track | Start | Length | Start sector | End sector
---------------------------------------------------------
1 | 0:00.33 | 4:08.47 | 33 | 18679
2 | 4:09.05 | 5:32.15 | 18680 | 43594
3 | 9:41.20 | 3:43.40 | 43595 | 60359
4 | 13:24.60 | 3:27.65 | 60360 | 75949
5 | 16:52.50 | 5:08.48 | 75950 | 99097
6 | 22:01.23 | 2:35.72 | 99098 | 110794
7 | 24:37.20 | 4:12.60 | 110795 | 129754
8 | 28:50.05 | 3:38.15 | 129755 | 146119
9 | 32:28.20 | 4:02.43 | 146120 | 164312
10 | 36:30.63 | 3:33.37 | 164313 | 180324
11 | 40:04.25 | 4:35.55 | 180325 | 201004
12 | 44:40.05 | 4:35.25 | 201005 | 221654
13 | 49:15.30 | 3:05.65 | 221655 | 235594
14 | 52:21.20 | 5:07.33 | 235595 | 258652
15 | 57:28.53 | 4:04.40 | 258653 | 276992
16 | 61:33.18 | 4:27.20 | 276993 | 297037
17 | 66:00.38 | 5:18.45 | 297038 | 320932
Range status and errors
Selected range
Filename C:\Users\Yulyo\Desktop\Sunshine Dance 2 [1992]\Sunshine Dance 2 [Cd2]\Various - Sunshine Dance Volume 2 [Cd2].wav
Peak level 100.0 %
Range quality 100.0 %
Test CRC 178CCF38
Copy CRC 178CCF38
Copy OK
No errors occurred
AccurateRip summary
Track 1 accurately ripped (confidence 6) [B4CBF191]
Track 2 accurately ripped (confidence 6) [CD837983]
Track 3 accurately ripped (confidence 6) [4285C64B]
Track 4 accurately ripped (confidence 6) [A34C4D5C]
Track 5 accurately ripped (confidence 6) [0B3F8657]
Track 6 accurately ripped (confidence 6) [0084F734]
Track 7 accurately ripped (confidence 6) [2E4584D6]
Track 8 accurately ripped (confidence 6) [11BC49F3]
Track 9 accurately ripped (confidence 6) [50ADC1C0]
Track 10 accurately ripped (confidence 6) [E0EFCAF9]
Track 11 accurately ripped (confidence 6) [DFC70F31]
Track 12 accurately ripped (confidence 6) [A5140021]
Track 13 accurately ripped (confidence 6) [7D7E67B5]
Track 14 accurately ripped (confidence 6) [60BF6C56]
Track 15 accurately ripped (confidence 6) [D05C117D]
Track 16 accurately ripped (confidence 6) [FD09500F]
Track 17 accurately ripped (confidence 6) [BE0B672C]
All tracks accurately ripped
End of status report
Содержание индексной карты (.CUE)
 REM GENRE Disco
REM DATE 1992
REM DISCID ED10B711
REM COMMENT "ExactAudioCopy v0.99pb5"
PERFORMER "Various"
TITLE "Sunshine Dance Volume 2 [Cd2]"
FILE "Various - Sunshine Dance Volume 2 [Cd2].flac" WAVE
TRACK 01 AUDIO
TITLE "Straight Up"
PERFORMER "Paula Abdul"
INDEX 00 00:00:00
INDEX 01 00:00:33
TRACK 02 AUDIO
TITLE "Killer"
PERFORMER "Adamski"
INDEX 00 04:08:13
INDEX 01 04:09:05
TRACK 03 AUDIO
TITLE "Best Of My Love"
PERFORMER "Positive Vibe"
INDEX 00 09:40:38
INDEX 01 09:41:20
TRACK 04 AUDIO
TITLE "I Love Your Smile"
PERFORMER "Chariff"
INDEX 00 13:24:08
INDEX 01 13:24:60
TRACK 05 AUDIO
TITLE "Y.M.C.A."
PERFORMER "Village People"
INDEX 00 16:51:58
INDEX 01 16:52:50
TRACK 06 AUDIO
TITLE "Breakaway"
PERFORMER "Tracey Ullman"
INDEX 00 22:00:43
INDEX 01 22:01:23
TRACK 07 AUDIO
TITLE "Disco Samba"
PERFORMER "Two Man Sound"
INDEX 00 24:36:18
INDEX 01 24:37:20
TRACK 08 AUDIO
TITLE "French Kiss"
PERFORMER "Honesty 69"
INDEX 00 28:49:08
INDEX 01 28:50:05
TRACK 09 AUDIO
TITLE "Goodlife"
PERFORMER "Inner City"
INDEX 00 32:27:38
INDEX 01 32:28:20
TRACK 10 AUDIO
TITLE "Give It Up"
PERFORMER "Steve Miller"
INDEX 00 36:30:05
INDEX 01 36:30:63
TRACK 11 AUDIO
TITLE "Let The Music Play"
PERFORMER "Shannon"
INDEX 00 40:03:40
INDEX 01 40:04:25
TRACK 12 AUDIO
TITLE "Take My Breath Away (Mix '92)"
PERFORMER "Jennifer Miles"
INDEX 00 44:39:68
INDEX 01 44:40:05
TRACK 13 AUDIO
TITLE "Under The Moon Of Love"
PERFORMER "Showaddywaddy"
INDEX 00 49:14:30
INDEX 01 49:15:30
TRACK 14 AUDIO
TITLE "Kalimba De Luna (Mix '92)"
PERFORMER "Tony Esposito"
INDEX 00 52:20:25
INDEX 01 52:21:20
TRACK 15 AUDIO
TITLE "Love Is In The Air"
PERFORMER "Steve Allen"
INDEX 00 57:27:68
INDEX 01 57:28:53
TRACK 16 AUDIO
TITLE "How Gee"
PERFORMER "Black Machine"
INDEX 00 61:32:35
INDEX 01 61:33:18
TRACK 17 AUDIO
TITLE "Safety Dance"
PERFORMER "Men Without Hats"
INDEX 00 65:59:58
INDEX 01 66:00:38
Лог проверки качества
Started at Wednesday, 20. 04. 2011. - 1802.44
1 file found
1 -===- CUsersYulyoDesktopSunshine Dance 2 [1992]Sunshine Dance 2 [Cd2]Various - Sunshine Dance Volume 2 [Cd2].wav
Conclusion this track is CDDA with probability 100%
Finished at Wednesday, 20. 04. 2011. - 1810.20 (operation time 007.36)
Exact Audio Copy V0.99 prebeta 5 from 4. May 2009
EAC extraction logfile from 20. April 2011, 17:53
Various / Sunshine Dance Volume 2 [Cd2]
Used drive : ASUS CRW-5232AX Adapter: 1 ID: 0
Read mode : Secure
Utilize accurate stream : Yes
Defeat audio cache : Yes
Make use of C2 pointers : No
Read offset correction : 6
Overread into Lead-In and Lead-Out : No
Fill up missing offset samples with silence : Yes
Delete leading and trailing silent blocks : No
Null samples used in CRC calculations : Yes
Used interface : Native Win32 interface for Win NT & 2000
Used output format : Internal WAV Routines
Sample format : 44.100 Hz; 16 Bit; Stereo
Use compression offset : 0
TOC of the extracted CD
Track | Start | Length | Start sector | End sector
---------------------------------------------------------
1 | 0:00.33 | 4:08.47 | 33 | 18679
2 | 4:09.05 | 5:32.15 | 18680 | 43594
3 | 9:41.20 | 3:43.40 | 43595 | 60359
4 | 13:24.60 | 3:27.65 | 60360 | 75949
5 | 16:52.50 | 5:08.48 | 75950 | 99097
6 | 22:01.23 | 2:35.72 | 99098 | 110794
7 | 24:37.20 | 4:12.60 | 110795 | 129754
8 | 28:50.05 | 3:38.15 | 129755 | 146119
9 | 32:28.20 | 4:02.43 | 146120 | 164312
10 | 36:30.63 | 3:33.37 | 164313 | 180324
11 | 40:04.25 | 4:35.55 | 180325 | 201004
12 | 44:40.05 | 4:35.25 | 201005 | 221654
13 | 49:15.30 | 3:05.65 | 221655 | 235594
14 | 52:21.20 | 5:07.33 | 235595 | 258652
15 | 57:28.53 | 4:04.40 | 258653 | 276992
16 | 61:33.18 | 4:27.20 | 276993 | 297037
17 | 66:00.38 | 5:18.45 | 297038 | 320932
Range status and errors
Selected range
Filename C:\Users\Yulyo\Desktop\Sunshine Dance 2 [1992]\Sunshine Dance 2 [Cd2]\Various - Sunshine Dance Volume 2 [Cd2].wav
Peak level 100.0 %
Range quality 100.0 %
Test CRC 178CCF38
Copy CRC 178CCF38
Copy OK
No errors occurred
AccurateRip summary
Track 1 accurately ripped (confidence 6) [B4CBF191]
Track 2 accurately ripped (confidence 6) [CD837983]
Track 3 accurately ripped (confidence 6) [4285C64B]
Track 4 accurately ripped (confidence 6) [A34C4D5C]
Track 5 accurately ripped (confidence 6) [0B3F8657]
Track 6 accurately ripped (confidence 6) [0084F734]
Track 7 accurately ripped (confidence 6) [2E4584D6]
Track 8 accurately ripped (confidence 6) [11BC49F3]
Track 9 accurately ripped (confidence 6) [50ADC1C0]
Track 10 accurately ripped (confidence 6) [E0EFCAF9]
Track 11 accurately ripped (confidence 6) [DFC70F31]
Track 12 accurately ripped (confidence 6) [A5140021]
Track 13 accurately ripped (confidence 6) [7D7E67B5]
Track 14 accurately ripped (confidence 6) [60BF6C56]
Track 15 accurately ripped (confidence 6) [D05C117D]
Track 16 accurately ripped (confidence 6) [FD09500F]
Track 17 accurately ripped (confidence 6) [BE0B672C]
All tracks accurately ripped
End of status report
 REM GENRE Disco
REM DATE 1992
REM DISCID ED10B711
REM COMMENT "ExactAudioCopy v0.99pb5"
PERFORMER "Various"
TITLE "Sunshine Dance Volume 2 [Cd2]"
FILE "Various - Sunshine Dance Volume 2 [Cd2].flac" WAVE
TRACK 01 AUDIO
TITLE "Straight Up"
PERFORMER "Paula Abdul"
INDEX 00 00:00:00
INDEX 01 00:00:33
TRACK 02 AUDIO
TITLE "Killer"
PERFORMER "Adamski"
INDEX 00 04:08:13
INDEX 01 04:09:05
TRACK 03 AUDIO
TITLE "Best Of My Love"
PERFORMER "Positive Vibe"
INDEX 00 09:40:38
INDEX 01 09:41:20
TRACK 04 AUDIO
TITLE "I Love Your Smile"
PERFORMER "Chariff"
INDEX 00 13:24:08
INDEX 01 13:24:60
TRACK 05 AUDIO
TITLE "Y.M.C.A."
PERFORMER "Village People"
INDEX 00 16:51:58
INDEX 01 16:52:50
TRACK 06 AUDIO
TITLE "Breakaway"
PERFORMER "Tracey Ullman"
INDEX 00 22:00:43
INDEX 01 22:01:23
TRACK 07 AUDIO
TITLE "Disco Samba"
PERFORMER "Two Man Sound"
INDEX 00 24:36:18
INDEX 01 24:37:20
TRACK 08 AUDIO
TITLE "French Kiss"
PERFORMER "Honesty 69"
INDEX 00 28:49:08
INDEX 01 28:50:05
TRACK 09 AUDIO
TITLE "Goodlife"
PERFORMER "Inner City"
INDEX 00 32:27:38
INDEX 01 32:28:20
TRACK 10 AUDIO
TITLE "Give It Up"
PERFORMER "Steve Miller"
INDEX 00 36:30:05
INDEX 01 36:30:63
TRACK 11 AUDIO
TITLE "Let The Music Play"
PERFORMER "Shannon"
INDEX 00 40:03:40
INDEX 01 40:04:25
TRACK 12 AUDIO
TITLE "Take My Breath Away (Mix '92)"
PERFORMER "Jennifer Miles"
INDEX 00 44:39:68
INDEX 01 44:40:05
TRACK 13 AUDIO
TITLE "Under The Moon Of Love"
PERFORMER "Showaddywaddy"
INDEX 00 49:14:30
INDEX 01 49:15:30
TRACK 14 AUDIO
TITLE "Kalimba De Luna (Mix '92)"
PERFORMER "Tony Esposito"
INDEX 00 52:20:25
INDEX 01 52:21:20
TRACK 15 AUDIO
TITLE "Love Is In The Air"
PERFORMER "Steve Allen"
INDEX 00 57:27:68
INDEX 01 57:28:53
TRACK 16 AUDIO
TITLE "How Gee"
PERFORMER "Black Machine"
INDEX 00 61:32:35
INDEX 01 61:33:18
TRACK 17 AUDIO
TITLE "Safety Dance"
PERFORMER "Men Without Hats"
INDEX 00 65:59:58
INDEX 01 66:00:38
Started at Wednesday, 20. 04. 2011. - 1802.44
1 file found
1 -===- CUsersYulyoDesktopSunshine Dance 2 [1992]Sunshine Dance 2 [Cd2]Various - Sunshine Dance Volume 2 [Cd2].wav
Conclusion this track is CDDA with probability 100%
Finished at Wednesday, 20. 04. 2011. - 1810.20 (operation time 007.36)

[1.09 GB] Скачать / Download