(Disco, Funk, Soul) Faith, Hope & Charity - Life Goes On - 2014 (Expanded Edition), FLAC (tracks+.cue), lossless - Скачать

Жанр: Disco, Funk, Soul
Носитель: CD
Год издания: 2014
Издатель (лейбл): Real Gone Music
Номер по каталогу: RGM-0295
Аудиокодек: FLAC (*.flac)
Тип рипа: tracks+.cue
Битрейт аудио: lossless
Продолжительность: 01:16:35
Rip by JET 1
Наличие сканов в содержимом раздачи: да
Треклист:
01. Life Goes On(6:31)
02. Gradually(4:12)
03. I Want A Man(5:15)
04. Positive Thinking(5:02)
05. You're My Peace Of Mind(7:25)
06. Cherish / Monday Monday(4:55)
07. You've Gotta Tell Her(4:19)
08. Just Wanted To Say I Love You(3:25)
09. A Time For Celebration(3:58)
10. Life Goes On [12'' Version](6:10)
11. You're My Peace Of Mind [12'' Version](9:40)
12. Gradually [12'' Version](7:48)
13. Positive Thinking [12'' Version](7:55)
Tracks 1-9 originally released on RCA APL 1-1827 in 1976;
Tracks 10-11 originally released on RCA single PD 10950 in 1976;
Tracks 12-13 originally released on RCA promo single DJL1-2272 in 1976.

 

песни, альбом, трек, бесплатно, музыка, torrent, торрент, download, pop-music, композиции, soundtrack, lossless, альбом, поп, cd, дискография, высокое качество, скачать, поп-музыка, pop, mp3

 Exact Audio Copy V1.0 beta 3 from 29. August 2011
EAC extraction logfile from 26. February 2015, 14:40
Faith, Hope & Charity / Life Goes On (Expanded Edition)
Used drive : GENERIC CDRCB05 Adapter: 4 ID: 0
Read mode : Secure
Utilize accurate stream : Yes
Defeat audio cache : Yes
Make use of C2 pointers : No
Read offset correction : 102
Overread into Lead-In and Lead-Out : No
Fill up missing offset samples with silence : Yes
Delete leading and trailing silent blocks : No
Null samples used in CRC calculations : Yes
Used interface : Native Win32 interface for Win NT & 2000
Gap handling : Appended to previous track
Used output format : User Defined Encoder
Selected bitrate : 1024 kBit/s
Quality : High
Add ID3 tag : No
Command line compressor : C:\Program Files\FLAC\flac.exe
Additional command line options : -8 -V -T "ARTIST=%artist%" -T "TITLE=%title%" -T "ALBUM=%albumtitle%" -T "DATE=%year%" -T "TRACKNUMBER=%tracknr%" -T "GENRE=%genre%" -T "PERFORMER=%albuminterpret%" -T "COMPOSER=%composer%" %haslyrics%--tag-from-file=LYRICS="%lyricsfile%"%haslyrics% -T "ALBUMARTIST=%albumartist%" -T "DISCNUMBER=%cdnumber%" -T "TOTALDISCS=%totalcds%" -T "TOTALTRACKS=%numtracks%" -T "COMMENT=%comment%" %source% -o %dest%
TOC of the extracted CD
Track | Start | Length | Start sector | End sector
---------------------------------------------------------
1 | 0:00.00 | 6:31.36 | 0 | 29360
2 | 6:31.36 | 4:11.53 | 29361 | 48238
3 | 10:43.14 | 5:15.24 | 48239 | 71887
4 | 15:58.38 | 5:01.59 | 71888 | 94521
5 | 21:00.22 | 7:24.46 | 94522 | 127867
6 | 28:24.68 | 4:55.02 | 127868 | 149994
7 | 33:19.70 | 4:18.61 | 149995 | 169405
8 | 37:38.56 | 3:25.29 | 169406 | 184809
9 | 41:04.10 | 3:58.28 | 184810 | 202687
10 | 45:02.38 | 6:09.68 | 202688 | 230430
11 | 51:12.31 | 9:39.38 | 230431 | 273893
12 | 60:51.69 | 7:48.36 | 273894 | 309029
13 | 68:40.30 | 7:54.63 | 309030 | 344642
Track 1
Filename I:\0\Faith, Hope & Charity ‎- Life Goes On (1976) [2014 Expanded Edition]\01 - Life Goes On.wav
Pre-gap length 0:00:02.00
Peak level 95.5 %
Extraction speed 1.6 X
Track quality 100.0 %
Test CRC 0B4EA742
Copy CRC 0B4EA742
Track not present in AccurateRip database
Copy OK
Track 2
Filename I:\0\Faith, Hope & Charity ‎- Life Goes On (1976) [2014 Expanded Edition]\02 - Gradually.wav
Pre-gap length 0:00:01.56
Peak level 91.5 %
Extraction speed 1.7 X
Track quality 100.0 %
Test CRC 98DBA0B3
Copy CRC 98DBA0B3
Track not present in AccurateRip database
Copy OK
Track 3
Filename I:\0\Faith, Hope & Charity ‎- Life Goes On (1976) [2014 Expanded Edition]\03 - I Want a Man.wav
Peak level 87.4 %
Extraction speed 1.9 X
Track quality 100.0 %
Test CRC D893185B
Copy CRC D893185B
Track not present in AccurateRip database
Copy OK
Track 4
Filename I:\0\Faith, Hope & Charity ‎- Life Goes On (1976) [2014 Expanded Edition]\04 - Positive Thinking.wav
Peak level 86.8 %
Extraction speed 1.8 X
Track quality 99.9 %
Test CRC 6612EA5E
Copy CRC 6612EA5E
Track not present in AccurateRip database
Copy OK
Track 5
Filename I:\0\Faith, Hope & Charity ‎- Life Goes On (1976) [2014 Expanded Edition]\05 - You're My Peace of Mind.wav
Pre-gap length 0:00:00.05
Peak level 98.9 %
Extraction speed 2.2 X
Track quality 100.0 %
Test CRC 75F4D5BD
Copy CRC 75F4D5BD
Track not present in AccurateRip database
Copy OK
Track 6
Filename I:\0\Faith, Hope & Charity ‎- Life Goes On (1976) [2014 Expanded Edition]\06 - Cherish , Monday Monday.wav
Peak level 100.0 %
Extraction speed 2.3 X
Track quality 100.0 %
Test CRC 6769472E
Copy CRC 6769472E
Track not present in AccurateRip database
Copy OK
Track 7
Filename I:\0\Faith, Hope & Charity ‎- Life Goes On (1976) [2014 Expanded Edition]\07 - You've Gotta Tell Her.wav
Pre-gap length 0:00:02.16
Peak level 87.5 %
Extraction speed 2.3 X
Track quality 100.0 %
Test CRC 3CE5109B
Copy CRC 3CE5109B
Track not present in AccurateRip database
Copy OK
Track 8
Filename I:\0\Faith, Hope & Charity ‎- Life Goes On (1976) [2014 Expanded Edition]\08 - Just Wanted to Say I Love You.wav
Peak level 79.5 %
Extraction speed 2.3 X
Track quality 100.0 %
Test CRC 9300FC87
Copy CRC 9300FC87
Track not present in AccurateRip database
Copy OK
Track 9
Filename I:\0\Faith, Hope & Charity ‎- Life Goes On (1976) [2014 Expanded Edition]\09 - A Time for Celebration.wav
Pre-gap length 0:00:01.23
Peak level 89.4 %
Extraction speed 2.2 X
Track quality 99.9 %
Test CRC 6346401B
Copy CRC 6346401B
Track not present in AccurateRip database
Copy OK
Track 10
Filename I:\0\Faith, Hope & Charity ‎- Life Goes On (1976) [2014 Expanded Edition]\10 - Life Goes On [12'' Version].wav
Pre-gap length 0:00:04.56
Peak level 82.8 %
Extraction speed 2.7 X
Track quality 100.0 %
Test CRC 2324A471
Copy CRC 2324A471
Track not present in AccurateRip database
Copy OK
Track 11
Filename I:\0\Faith, Hope & Charity ‎- Life Goes On (1976) [2014 Expanded Edition]\11 - You're My Peace of Mind [12'' Version].wav
Pre-gap length 0:00:01.57
Peak level 90.0 %
Extraction speed 3.0 X
Track quality 100.0 %
Test CRC 4750C930
Copy CRC 4750C930
Track not present in AccurateRip database
Copy OK
Track 12
Filename I:\0\Faith, Hope & Charity ‎- Life Goes On (1976) [2014 Expanded Edition]\12 - Gradually [12'' Version].wav
Pre-gap length 0:00:01.57
Peak level 87.7 %
Extraction speed 3.1 X
Track quality 100.0 %
Test CRC 0A1E3C4B
Copy CRC 0A1E3C4B
Track not present in AccurateRip database
Copy OK
Track 13
Filename I:\0\Faith, Hope & Charity ‎- Life Goes On (1976) [2014 Expanded Edition]\13 - Positive Thinking [12'' Version].wav
Pre-gap length 0:00:01.56
Peak level 87.2 %
Extraction speed 3.2 X
Track quality 100.0 %
Test CRC F92A18A4
Copy CRC F92A18A4
Track not present in AccurateRip database
Copy OK
None of the tracks are present in the AccurateRip database
No errors occurred
End of status report
==== Log checksum E6864C386CC91BDA2EDEA49999F1343DB2BD88A144902177393E632AB216DDCB ====
 REM DISCID 9C11F30D
REM DATE 1976
REM COMMENT "ExactAudioCopy v1.0b3"
PERFORMER "Faith, Hope & Charity"
TITLE "Life Goes On (Expanded Edition)"
FILE "01 - Life Goes On.wav" WAVE
TRACK 01 AUDIO
TITLE "Life Goes On"
PERFORMER "Faith, Hope & Charity"
INDEX 01 00:00:00
TRACK 02 AUDIO
TITLE "Gradually"
PERFORMER "Faith, Hope & Charity"
INDEX 00 06:29:55
FILE "02 - Gradually.wav" WAVE
INDEX 01 00:00:00
FILE "03 - I Want A Man.wav" WAVE
TRACK 03 AUDIO
TITLE "I Want A Man"
PERFORMER "Faith, Hope & Charity"
INDEX 01 00:00:00
FILE "04 - Positive Thinking.wav" WAVE
TRACK 04 AUDIO
TITLE "Positive Thinking"
PERFORMER "Faith, Hope & Charity"
INDEX 01 00:00:00
TRACK 05 AUDIO
TITLE "You're My Peace Of Mind"
PERFORMER "Faith, Hope & Charity"
INDEX 00 05:01:54
FILE "05 - You're My Peace Of Mind.wav" WAVE
INDEX 01 00:00:00
FILE "06 - Cherish - Monday Monday.wav" WAVE
TRACK 06 AUDIO
TITLE "Cherish / Monday Monday"
PERFORMER "Faith, Hope & Charity"
INDEX 01 00:00:00
TRACK 07 AUDIO
TITLE "You've Gotta Tell Her"
PERFORMER "Faith, Hope & Charity"
INDEX 00 04:52:61
FILE "07 - You've Gotta Tell Her.wav" WAVE
INDEX 01 00:00:00
FILE "08 - Just Wanted To Say I Love You.wav" WAVE
TRACK 08 AUDIO
TITLE "Just Wanted To Say I Love You"
PERFORMER "Faith, Hope & Charity"
INDEX 01 00:00:00
TRACK 09 AUDIO
TITLE "A Time For Celebration"
PERFORMER "Faith, Hope & Charity"
INDEX 00 03:24:06
FILE "09 - A Time For Celebration.wav" WAVE
INDEX 01 00:00:00
TRACK 10 AUDIO
TITLE "Life Goes On [12'' Version]"
PERFORMER "Faith, Hope & Charity"
INDEX 00 03:53:47
FILE "10 - Life Goes On [12'' Version].wav" WAVE
INDEX 01 00:00:00
TRACK 11 AUDIO
TITLE "You're My Peace Of Mind [12'' Version]"
PERFORMER "Faith, Hope & Charity"
INDEX 00 06:08:11
FILE "11 - You're My Peace Of Mind [12'' Version].wav" WAVE
INDEX 01 00:00:00
TRACK 12 AUDIO
TITLE "Gradually [12'' Version]"
PERFORMER "Faith, Hope & Charity"
INDEX 00 09:37:56
FILE "12 - Gradually [12'' Version].wav" WAVE
INDEX 01 00:00:00
TRACK 13 AUDIO
TITLE "Positive Thinking [12'' Version]"
PERFORMER "Faith, Hope & Charity"
INDEX 00 07:46:55
FILE "13 - Positive Thinking [12'' Version].wav" WAVE
INDEX 01 00:00:00

[580.8 MB] Скачать / Download