(Disco, Funk, Soul) GQ - Two (1979) - 2012, FLAC (tracks+.cue), lossless - Скачать

Жанр: Disco, Funk, Soul
Носитель: CD
Год издания: 2012
Издатель (лейбл): Big Break Records/Cherry Red Records
Номер по каталогу: CDBBR 0155
Аудиокодек: FLAC (*.flac)
Тип рипа: tracks+.cue
Битрейт аудио: lossless
Продолжительность: 48:52
Источник (релизер): ruskaval
Наличие сканов в содержимом раздачи: да
Треклист:
01. Standing Ovation(5:33)
02. Is It Cool(4:09)
03. Someday (In Your Life)(4:57)
04. Lies(5:20)
05. GQ Down(3:56)
06. Don't Stop This Feeling(4:58)
07. Reason For The Season(3:43)
08. Sitting In The Park(3:19)
09. It's Like That(4:20)
10. Standing Ovation (Single Version)(3:55)
11. Reason For The Season (12″ Version)(4:42)
 

скачать, композиции, бесплатно, музыка, mp3, альбом, pop-music, soundtrack, download, торрент, поп-музыка, альбом, cd, lossless, torrent, дискография, трек, высокое качество, pop, поп, песни

GQ originally formed in 1968 as Sabu & The Survivors. Their biggest hit was "Disco Nights (Rock-Freak)” single from their debut album which peaked at R&B #1, Disco #3 and Pop #12. The debut album peaked at R&B #2 and Pop #13.
GQ TWO was their second album and reached R&B #9 and Pop #46 shortly after it’s release in 1980. It was produced by Jimmy Simpson who also produced Candi Staton, Ashford & Simpson and Deodato.
STANDING OVATION was the first single release which reached R&B #12 and Disco #35 and is a true disco classic.
SITTING IN THE PARK gained GQ the R&B #9 spot and also reached Pop #101. It is a cover of Billy Stewart’s 1965 R&B #4 hit.
Released in deluxe Super Jewel cases, with bonus tracks and brand new interviews with band members, GQ TWO is a must for all Disco, Funk and Soul fans out there!
 Exact Audio Copy V1.0 beta 3 from 29. August 2011
EAC extraction logfile from 11. September 2013, 9:45
GQ / Two
Used drive : TSSTcorp CDDVDW Adapter: 0 ID: 0
Read mode : Secure
Utilize accurate stream : Yes
Defeat audio cache : Yes
Make use of C2 pointers : No
Read offset correction : 6
Overread into Lead-In and Lead-Out : No
Fill up missing offset samples with silence : Yes
Delete leading and trailing silent blocks : No
Null samples used in CRC calculations : Yes
Used interface : Native Win32 interface for Win NT & 2000
Gap handling : Appended to previous track
Used output format : User Defined Encoder
Selected bitrate : 128 kBit/s
Quality : High
Add ID3 tag : No
Command line compressor : C:\Program Files (x86)\Exact Audio Copy\Flac\flac.exe
Additional command line options : -8 -V -T "ARTIST=%artist%" -T "TITLE=%title%" -T "ALBUM=%albumtitle%" -T "DATE=%year%" -T "TRACKNUMBER=%tracknr%" -T "TOTALTRACKS=%numtracks%" -T "GENRE=%genre%" -T "ALBUMARTIST=%albumartist%" -T "ALBUM ARTIST=%albumartist%" -T "COMMENT=EAC Secure Mode, Test & Copy, AccurateRip, FLAC -8" %source%
TOC of the extracted CD
Track | Start | Length | Start sector | End sector
---------------------------------------------------------
1 | 0:00.00 | 5:32.42 | 0 | 24941
2 | 5:32.42 | 4:09.37 | 24942 | 43653
3 | 9:42.04 | 4:56.42 | 43654 | 65895
4 | 14:38.46 | 5:19.43 | 65896 | 89863
5 | 19:58.14 | 3:55.54 | 89864 | 107542
6 | 23:53.68 | 4:58.32 | 107543 | 129924
7 | 28:52.25 | 3:42.71 | 129925 | 146645
8 | 32:35.21 | 3:19.33 | 146646 | 161603
9 | 35:54.54 | 4:20.26 | 161604 | 181129
10 | 40:15.05 | 3:54.74 | 181130 | 198753
11 | 44:10.04 | 4:41.52 | 198754 | 219880
Track 1
Filename C:\AddisistheGodFlac\01 - Standing Ovation.wav
Pre-gap length 0:00:02.00
Peak level 96.6 %
Extraction speed 2.8 X
Track quality 100.0 %
Test CRC F82FB486
Copy CRC F82FB486
Accurately ripped (confidence 3) [A6614E12] (AR v2)
Copy OK
Track 2
Filename C:\AddisistheGodFlac\02 - Is It Cool.wav
Pre-gap length 0:00:02.06
Peak level 96.6 %
Extraction speed 3.1 X
Track quality 100.0 %
Test CRC A98D8527
Copy CRC A98D8527
Accurately ripped (confidence 3) [1409D918] (AR v2)
Copy OK
Track 3
Filename C:\AddisistheGodFlac\03 - Someday (In Your Life).wav
Pre-gap length 0:00:01.27
Peak level 96.6 %
Extraction speed 3.5 X
Track quality 100.0 %
Test CRC 2F71ABC6
Copy CRC 2F71ABC6
Accurately ripped (confidence 3) [634AF6AE] (AR v2)
Copy OK
Track 4
Filename C:\AddisistheGodFlac\04 - Lies.wav
Pre-gap length 0:00:00.64
Peak level 96.6 %
Extraction speed 3.8 X
Track quality 100.0 %
Test CRC FD1546B9
Copy CRC FD1546B9
Accurately ripped (confidence 3) [E6257834] (AR v2)
Copy OK
Track 5
Filename C:\AddisistheGodFlac\05 - GQ Down.wav
Pre-gap length 0:00:00.49
Peak level 96.6 %
Extraction speed 3.1 X
Track quality 99.9 %
Test CRC 869F2A43
Copy CRC 869F2A43
Accurately ripped (confidence 3) [A0CA714E] (AR v2)
Copy OK
Track 6
Filename C:\AddisistheGodFlac\06 - Don't Stop This Feeling.wav
Pre-gap length 0:00:01.29
Peak level 96.6 %
Extraction speed 4.3 X
Track quality 100.0 %
Test CRC 1142C2DA
Copy CRC 1142C2DA
Accurately ripped (confidence 3) [7191E2CD] (AR v2)
Copy OK
Track 7
Filename C:\AddisistheGodFlac\07 - Reason For The Season.wav
Pre-gap length 0:00:01.29
Peak level 96.6 %
Extraction speed 4.3 X
Track quality 100.0 %
Test CRC 870A5129
Copy CRC 870A5129
Accurately ripped (confidence 3) [5F70D177] (AR v2)
Copy OK
Track 8
Filename C:\AddisistheGodFlac\08 - Sitting In The Park.wav
Pre-gap length 0:00:01.28
Peak level 96.6 %
Extraction speed 4.4 X
Track quality 100.0 %
Test CRC DB8E7B3C
Copy CRC DB8E7B3C
Accurately ripped (confidence 3) [42AB4E87] (AR v2)
Copy OK
Track 9
Filename C:\AddisistheGodFlac\09 - It's Like That.wav
Pre-gap length 0:00:01.49
Peak level 96.6 %
Extraction speed 4.7 X
Track quality 100.0 %
Test CRC FA3A2F61
Copy CRC FA3A2F61
Accurately ripped (confidence 3) [26AD8B4B] (AR v2)
Copy OK
Track 10
Filename C:\AddisistheGodFlac\10 - Standing Ovation (Single Version).wav
Pre-gap length 0:00:03.62
Peak level 96.6 %
Extraction speed 4.8 X
Track quality 100.0 %
Test CRC 59531DA2
Copy CRC 59531DA2
Accurately ripped (confidence 3) [85204879] (AR v2)
Copy OK
Track 11
Filename C:\AddisistheGodFlac\11 - Reason For The Season (12' Version).wav
Pre-gap length 0:00:01.29
Peak level 96.6 %
Extraction speed 5.1 X
Track quality 100.0 %
Test CRC 5158F0D3
Copy CRC 5158F0D3
Accurately ripped (confidence 3) [91A06F55] (AR v2)
Copy OK
All tracks accurately ripped
No errors occurred
End of status report
==== Log checksum AB0F6448E7B7EBC3A2C8252A906DA345B21ADC6353F2E48AC4F8A96EB3329154 ====
 REM GENRE Soul
REM DATE 1979
REM DISCID 8D0B730B
REM COMMENT "ExactAudioCopy v1.0b3"
PERFORMER "GQ"
TITLE "Two"
FILE "01 - Standing Ovation.wav" WAVE
TRACK 01 AUDIO
TITLE "Standing Ovation"
PERFORMER "GQ"
INDEX 01 00:00:00
TRACK 02 AUDIO
TITLE "Is It Cool"
PERFORMER "GQ"
INDEX 00 05:30:36
FILE "02 - Is It Cool.wav" WAVE
INDEX 01 00:00:00
TRACK 03 AUDIO
TITLE "Someday (In Your Life)"
PERFORMER "GQ"
INDEX 00 04:08:10
FILE "03 - Someday (In Your Life).wav" WAVE
INDEX 01 00:00:00
TRACK 04 AUDIO
TITLE "Lies"
PERFORMER "GQ"
INDEX 00 04:55:53
FILE "04 - Lies.wav" WAVE
INDEX 01 00:00:00
TRACK 05 AUDIO
TITLE "GQ Down"
PERFORMER "GQ"
INDEX 00 05:18:69
FILE "05 - GQ Down.wav" WAVE
INDEX 01 00:00:00
TRACK 06 AUDIO
TITLE "Don't Stop This Feeling"
PERFORMER "GQ"
INDEX 00 03:54:25
FILE "06 - Don't Stop This Feeling.wav" WAVE
INDEX 01 00:00:00
TRACK 07 AUDIO
TITLE "Reason For The Season"
PERFORMER "GQ"
INDEX 00 04:57:03
FILE "07 - Reason For The Season.wav" WAVE
INDEX 01 00:00:00
TRACK 08 AUDIO
TITLE "Sitting In The Park"
PERFORMER "GQ"
INDEX 00 03:41:43
FILE "08 - Sitting In The Park.wav" WAVE
INDEX 01 00:00:00
TRACK 09 AUDIO
TITLE "It's Like That"
PERFORMER "GQ"
INDEX 00 03:17:59
FILE "09 - It's Like That.wav" WAVE
INDEX 01 00:00:00
TRACK 10 AUDIO
TITLE "Standing Ovation (Single Version)"
PERFORMER "GQ"
INDEX 00 04:16:39
FILE "10 - Standing Ovation (Single Version).wav" WAVE
INDEX 01 00:00:00
TRACK 11 AUDIO
TITLE "Reason For The Season (12″ Version)"
PERFORMER "GQ"
INDEX 00 03:53:45
FILE "11 - Reason For The Season (12″ Version).wav" WAVE
INDEX 01 00:00:00

[389.2 MB] Скачать / Download