(Disco / Funk / Soul) The Three Degrees - New Dimensions - 2010, FLAC (image+.cue), lossless - Скачать

Жанр: Disco / Funk / Soul
Страна-производитель диска: UK
Год издания диска: 2010 ( ℗ 1978-1979 )
Издатель (лейбл): This compilation (P)&(C)2010Big Break Records
Аудиокодек: FLAC (*.flac)
Тип рипа: image+.cue
Битрейт аудио: lossless
Источник (релизер): Свой диск
Наличие сканов в содержимом раздачи: да
Треклист:
01. Giving Up, Giving In
02. Falling In Love Again
03. Looking For Love
04. The Runner
05. Woman In Love
06. Magic In The Air
BONUS TRACKS :
07. Giving Up, Giving In (Single Version)
08. Woman In Love (Single Version)
09. The Runner (Single Version)
10. Falling In Love Again (Single Version)
11. Out Of Love Again (Single B-Side)
12. The Golden Lady (Soundtrack Lp Version)
13. The Runner (12' Disco Remix)Прослушать

альбом, композиции, музыка, lossless, скачать, mp3, download, бесплатно, pop-music, torrent, soundtrack, песни, торрент, дискография, поп-музыка, pop, cd, высокое качество, поп, трек, альбом

 Exact Audio Copy V0.99 prebeta 4 from 23. January 2008
EAC extraction logfile from 10. September 2011, 20:49
The Three Degrees / New Dimensions
Used drive : TSSTcorpDVD+-RW TS-H553A Adapter: 0 ID: 2
Read mode : Secure
Utilize accurate stream : Yes
Defeat audio cache : Yes
Make use of C2 pointers : No
Read offset correction : 6
Overread into Lead-In and Lead-Out : No
Fill up missing offset samples with silence : Yes
Delete leading and trailing silent blocks : No
Null samples used in CRC calculations : Yes
Used interface : Native Win32 interface for Win NT & 2000
Used output format : User Defined Encoder
Selected bitrate : 768 kBit/s
Quality : High
Add ID3 tag : No
Command line compressor : C:\Program\Exact Audio Copy\FLAC\FLAC.EXE
Additional command line options : -8 -V -T "ARTIST=%a" -T "TITLE=%t" -T "ALBUM=%g" -T "DATE=%y" -T "TRACKNUMBER=%n" -T "GENRE=%m" -T "COMMENT=%e" %s -o %d
TOC of the extracted CD
Track | Start | Length | Start sector | End sector
---------------------------------------------------------
1 | 0:00.00 | 6:07.39 | 0 | 27563
2 | 6:07.39 | 5:33.61 | 27564 | 52599
3 | 11:41.25 | 5:29.33 | 52600 | 77307
4 | 17:10.58 | 6:20.27 | 77308 | 105834
5 | 23:31.10 | 5:18.60 | 105835 | 129744
6 | 28:49.70 | 5:46.60 | 129745 | 155754
7 | 34:36.55 | 3:56.04 | 155755 | 173458
8 | 38:32.59 | 4:13.04 | 173459 | 192437
9 | 42:45.63 | 3:46.64 | 192438 | 209451
10 | 46:32.52 | 3:58.35 | 209452 | 227336
11 | 50:31.12 | 3:59.09 | 227337 | 245270
12 | 54:30.21 | 4:15.07 | 245271 | 264402
13 | 58:45.28 | 8:15.73 | 264403 | 301600
Range status and errors
Selected range
Filename C:\Documents and Settings\VASILIY\Mina dokument\Mp3tag\The Three Degrees - New Dimensions.wav
Peak level 100.0 %
Range quality 100.0 %
Test CRC 2B7CB276
Copy CRC 2B7CB276
Copy OK
No errors occurred
AccurateRip summary
Track 1 accurately ripped (confidence 4) [DC03C336]
Track 2 accurately ripped (confidence 4) [4E8D86F1]
Track 3 accurately ripped (confidence 4) [1E7C51FF]
Track 4 accurately ripped (confidence 4) [B828044C]
Track 5 accurately ripped (confidence 4) [53B7EBEF]
Track 6 accurately ripped (confidence 4) [3B911420]
Track 7 accurately ripped (confidence 4) [F016E624]
Track 8 accurately ripped (confidence 4) [3C42EC77]
Track 9 accurately ripped (confidence 4) [38C8E85E]
Track 10 accurately ripped (confidence 4) [147BFEF5]
Track 11 accurately ripped (confidence 4) [F1A032EE]
Track 12 accurately ripped (confidence 4) [991BFD4D]
Track 13 accurately ripped (confidence 4) [1806D8F2]
All tracks accurately ripped
End of status report

[504.2 MB] Скачать / Download