(Disco, Funk) Strutt - Times Move On - 1975, FLAC (tracks+.cue), lossless - Скачать

Жанр: Disco, Funk
Год выпуска диска: 1975
Производитель диска: Brunswick (VICP-61515)
Аудио кодек: FLAC
Тип рипа: tracks+.cue
Битрейт аудио: lossless
Продолжительность: 37:48 min
Трэклист:
01. Time Moves On [0:06:01.17]
02. Said You Didn't Love Him [0:03:15.15]
03. Front Row Romeo (Instrumental) [0:04:24.08]
04. We've Come A Long Way Baby [0:04:22.15]
05. Funky Sign [0:03:50.60]
06. Front Row Romeo (Vocal) [0:04:24.07]
07. If Wishing Made It So [0:04:38.73]
08. Funky Baby Feet [0:03:44.70]
09. Said You Didn't Love Her (Instrumental) [0:03:06.32]

pop-music, cd, трек, альбом, поп, альбом, композиции, бесплатно, торрент, песни, download, pop, mp3, torrent, lossless, поп-музыка, дискография, высокое качество, музыка, soundtrack, скачать

Formed in New Jersey, Strutt was a disco-funk band signed briefly to the Brunswick label. Their lineup included guitarist Carmen Cosentino, keyboardist Frank Portolano, woodwind player Jim Mecke, trombonist Joe Escobar, bassist Edward Walker, and drummer Roger Zumbo. With pianist/producer Benny Clark at the helm, Strutt recorded a full-length LP, Time Moves On, in 1975. "Funky Sign" garnered some airplay in dance clubs, as did the title track and its B-side "Front Row Romeo." However, nothing further was heard from the group.
by Steve Huey (AMG)
This is a tight, competent set of disco funk from Strutt, a short-lived band from New Jersey. The band seemed to vanish without a blip after this album's title track, "Time Moves On," went all the way to number one on the disco chart in 1976. The remainder of the album flits between low-key soul ballads ("We've Come a Long Way Baby," "If Wishing Made It So") and instrumentals full of organ swipes and horn blasts ("Front Row Romeo," which appears in both vocal and instrumental versions). It isn't a weak album by any stretch, if a bit lean, but the title track is the only thing that truly sticks out.
by Andy Kellman (AMG)
Exact Audio Copy V0.99 prebeta 5 from 4. May 2009
EAC extraction logfile from 26. August 2009, 17:10
Strutt / Time Moves On
Used drive : Optiarc DVD RW AD-5170A Adapter: 0 ID: 1
Read mode : Secure
Utilize accurate stream : Yes
Defeat audio cache : Yes
Make use of C2 pointers : No
Read offset correction : 48
Overread into Lead-In and Lead-Out : No
Fill up missing offset samples with silence : Yes
Delete leading and trailing silent blocks : No
Null samples used in CRC calculations : Yes
Used interface : Installed external ASPI interface
Gap handling : Appended to previous track
Used output format : User Defined Encoder
Selected bitrate : 128 kBit/s
Quality : High
Add ID3 tag : No
Command line compressor : C:\Programmi\Exact Audio Copy\Flac\flac.exe
Additional command line options : -8 -V -T "artist=%a" -T "title=%t" -T "album=%g" -T "date=%y" -T "tracknumber=%n" -T "genre=%m" %s
TOC of the extracted CD
Track | Start | Length | Start sector | End sector
---------------------------------------------------------
1 | 0:00.00 | 6:01.17 | 0 | 27091
2 | 6:01.17 | 3:15.15 | 27092 | 41731
3 | 9:16.32 | 4:24.08 | 41732 | 61539
4 | 13:40.40 | 4:22.15 | 61540 | 81204
5 | 18:02.55 | 3:50.60 | 81205 | 98514
6 | 21:53.40 | 4:24.07 | 98515 | 118321
7 | 26:17.47 | 4:38.73 | 118322 | 139244
8 | 30:56.45 | 3:44.70 | 139245 | 156114
9 | 34:41.40 | 3:06.32 | 156115 | 170096
Track 1
Filename D:\Strutt - Tme Moves On (1975)\Music\01 - Time Moves On.wav
Pre-gap length 0:00:02.00
Peak level 99.9 %
Track quality 100.0 %
Test CRC BB38DC4A
Copy CRC BB38DC4A
Track not present in AccurateRip database
Copy OK
Track 2
Filename D:\Strutt - Tme Moves On (1975)\Music\02 - Said You Didn't Love Him.wav
Pre-gap length 0:00:01.19
Peak level 99.8 %
Track quality 100.0 %
Test CRC F464297D
Copy CRC F464297D
Track not present in AccurateRip database
Copy OK
Track 3
Filename D:\Strutt - Tme Moves On (1975)\Music\03 - Front Row Romeo (Instrumental).wav
Pre-gap length 0:00:02.39
Peak level 99.9 %
Track quality 100.0 %
Test CRC 4B3A377B
Copy CRC 4B3A377B
Track not present in AccurateRip database
Copy OK
Track 4
Filename D:\Strutt - Tme Moves On (1975)\Music\04 - We've Come A Long Way Baby.wav
Pre-gap length 0:00:02.27
Peak level 99.9 %
Track quality 100.0 %
Test CRC 0DFA5A81
Copy CRC DEC992FB
Track not present in AccurateRip database
Copy OK
Track 5
Filename D:\Strutt - Tme Moves On (1975)\Music\05 - Funky Sign.wav
Pre-gap length 0:00:02.14
Peak level 99.0 %
Track quality 100.0 %
Test CRC E1C8A9EF
Copy CRC E1C8A9EF
Track not present in AccurateRip database
Copy OK
Track 6
Filename D:\Strutt - Tme Moves On (1975)\Music\06 - Front Row Romeo (Vocal).wav
Pre-gap length 0:00:02.57
Peak level 99.9 %
Track quality 100.0 %
Test CRC 3DF1DDB8
Copy CRC 3DF1DDB8
Track not present in AccurateRip database
Copy OK
Track 7
Filename D:\Strutt - Tme Moves On (1975)\Music\07 - If Wishing Made It So.wav
Pre-gap length 0:00:02.09
Peak level 99.9 %
Track quality 100.0 %
Test CRC F24C0595
Copy CRC F24C0595
Track not present in AccurateRip database
Copy OK
Track 8
Filename D:\Strutt - Tme Moves On (1975)\Music\08 - Funky Baby Feet.wav
Pre-gap length 0:00:02.27
Peak level 99.9 %
Track quality 100.0 %
Test CRC C82189FB
Copy CRC C82189FB
Track not present in AccurateRip database
Copy OK
Track 9
Filename D:\Strutt - Tme Moves On (1975)\Music\09 - Said You Didn't Love Her (Instrumental).wav
Pre-gap length 0:00:00.54
Peak level 99.9 %
Track quality 100.0 %
Test CRC A2091756
Copy CRC A2091756
Track not present in AccurateRip database
Copy OK
None of the tracks are present in the AccurateRip database
No errors occurred
End of status report
------------------------------------------------------------
Exact Audio Copy V0.99 prebeta 5 from 4. May 2009
EAC extraction logfile from 26. August 2009, 17:13
Strutt / Time Moves On
Used drive : Optiarc DVD RW AD-5170A Adapter: 0 ID: 1
Read mode : Secure
Utilize accurate stream : Yes
Defeat audio cache : Yes
Make use of C2 pointers : No
Read offset correction : 48
Overread into Lead-In and Lead-Out : No
Fill up missing offset samples with silence : Yes
Delete leading and trailing silent blocks : No
Null samples used in CRC calculations : Yes
Used interface : Installed external ASPI interface
Gap handling : Appended to previous track
Used output format : User Defined Encoder
Selected bitrate : 128 kBit/s
Quality : High
Add ID3 tag : No
Command line compressor : C:\Programmi\Exact Audio Copy\Flac\flac.exe
Additional command line options : -8 -V -T "artist=%a" -T "title=%t" -T "album=%g" -T "date=%y" -T "tracknumber=%n" -T "genre=%m" %s
TOC of the extracted CD
Track | Start | Length | Start sector | End sector
---------------------------------------------------------
1 | 0:00.00 | 6:01.17 | 0 | 27091
2 | 6:01.17 | 3:15.15 | 27092 | 41731
3 | 9:16.32 | 4:24.08 | 41732 | 61539
4 | 13:40.40 | 4:22.15 | 61540 | 81204
5 | 18:02.55 | 3:50.60 | 81205 | 98514
6 | 21:53.40 | 4:24.07 | 98515 | 118321
7 | 26:17.47 | 4:38.73 | 118322 | 139244
8 | 30:56.45 | 3:44.70 | 139245 | 156114
9 | 34:41.40 | 3:06.32 | 156115 | 170096
Track 4
Filename D:\Strutt - Tme Moves On (1975)\Music\04 - We've Come A Long Way Baby.wav
Pre-gap length 0:00:02.27
Peak level 99.9 %
Track quality 100.0 %
Test CRC DEC992FB
Copy CRC DEC992FB
Track not present in AccurateRip database
Copy OK
None of the tracks are present in the AccurateRip database
No errors occurred
End of status report

[265.2 MB] Скачать / Download