(Disco/Hi-Nrg) VA - The Best Of JDC Records - ''Spin It'' - 1995, APE (image+.cue), lossless - Скачать

Жанр:Disco/Hi-Nrg
Год выпуска диска:1995
Производитель диска:USA - Hot Productions
Аудио кодек:APE
Тип рипа:image+.cue
Битрейт аудио:lossless
Продолжительность:1:17:09
Трэклист:
01. Tyrants In Therapy - Too Tough To Cry 4:48
02. Q Boys - Beyond The Clouds 4:02
03. Tapps - My Forbidden Lover 4:35
04. Sunbelt - Spin It 5:12
05. Finzy Kontini - Cha Cha Cha 5:02
06. MC Miker & DJ Sven - Holiday Rap 4:30
07. Various Artists - The L.A. Party Mix 3:34
08. Tapps - Hurricane 4:57
09. Mo' Boss - Tequila 4:36
10. Jeanneete & The New Dance - Feel The Energy 4:45
11. Johnny Chingas - Samba 5:06
12. The Glass Family - Mr DJ You Know How To Make Me Dance 7:15
13. Various Artists - The JDC Mixer "Non Stop Hi-NRG" 18:40

Доп. информация:
Абсолютно все рипы сделаны с оригинальных CD из моей коллекции !!!
Полные сканы обложек и дисков прилагаются !!!
The Best Of ...
The Definitive 12 '' Collection …

скачать, lossless, pop-music, поп-музыка, бесплатно, песни, soundtrack, cd, mp3, альбом, альбом, торрент, трек, дискография, pop, высокое качество, поп, torrent, download, композиции, музыка

Back
JDC Records Information
Отчет EAC
Exact Audio Copy V0.99 prebeta 4 from 23. January 2008
Отчёт EAC об извлечении, выполненном 12. июля 2009, 5:23
Various / The Best Of JDC Records - Spin It
Дисковод: Optiarc DVD RW AD-5200A Adapter: 0 ID: 0
Режим чтения : Достоверность
Использование точного потока : Да
Отключение кэша аудио : Да
Использование указателей C2 : Нет
Коррекция смещения при чтении : 48
Способность читать области Lead-in и Lead-out : Нет
Заполнение пропущенных сэмплов тишиной : Да
Удаление блоков с тишиной в начале и конце : Нет
При вычислениях CRC использовались нулевые сэмплы : Да
Интерфейс : Установленный внешний ASPI-интерфейс
Выходной формат : Внутренние WAV-операции
Формат сэмплов : 44.100 Гц; 16 бит; стерео
TOC извлечённого CD
Трек | Старт | Длительность | Начальный сектор | Конечный сектор
---------------------------------------------------------------------
1 | 0:00.00 | 4:48.40 | 0 | 21639
2 | 4:48.40 | 4:02.72 | 21640 | 39861
3 | 8:51.37 | 4:35.43 | 39862 | 60529
4 | 13:27.05 | 5:12.57 | 60530 | 83986
5 | 18:39.62 | 5:02.40 | 83987 | 106676
6 | 23:42.27 | 4:30.45 | 106677 | 126971
7 | 28:12.72 | 3:34.70 | 126972 | 143091
8 | 31:47.67 | 4:57.40 | 143092 | 165406
9 | 36:45.32 | 4:36.35 | 165407 | 186141
10 | 41:21.67 | 4:45.28 | 186142 | 207544
11 | 46:07.20 | 5:06.50 | 207545 | 230544
12 | 51:13.70 | 7:15.25 | 230545 | 263194
13 | 58:29.20 | 18:40.67 | 263195 | 347261
Характеристики диапазона извлечения и сообщения об ошибках
Выбранный диапазон
Имя файла E:\Torrents.Ru - Projects\Various -The Best Of JDC Records - Spin It\Various -The Best Of JDC Records - Spin It\Various - The Best Of JDC Records - Spin It.wav
Пиковый уровень 100.0 %
Качество диапазона 100.0 %
CRC копии 2E2A2D9B
Копирование... OK
Ошибок не произошло
AccurateRip: сводка
Трек 1 точное извлечение (доверие 1) [1CA65765]
Трек 2 точное извлечение (доверие 1) [A6BE9D3D]
Трек 3 точное извлечение (доверие 1) [6AD0B164]
Трек 4 точное извлечение (доверие 1) [34D2DBFE]
Трек 5 точное извлечение (доверие 1) [C2BB887C]
Трек 6 точное извлечение (доверие 1) [6D39953B]
Трек 7 точное извлечение (доверие 1) [3D334C3E]
Трек 8 точное извлечение (доверие 1) [F5F97AE5]
Трек 9 точное извлечение (доверие 1) [77EC65F1]
Трек 10 точное извлечение (доверие 1) [BD2A61D2]
Трек 11 точное извлечение (доверие 1) [EA74C9FE]
Трек 12 точное извлечение (доверие 1) [18ED8004]
Трек 13 точное извлечение (доверие 1) [5E90DD86]
Все треки извлечены точно
Конец отчёта
Exact Audio Copy V0.99 prebeta 4 from 23. January 2008
Отчёт EAC об извлечении, выполненном 12. июля 2009, 5:23
Various / The Best Of JDC Records - Spin It
Дисковод: Optiarc DVD RW AD-5200A Adapter: 0 ID: 0
Режим чтения : Достоверность
Использование точного потока : Да
Отключение кэша аудио : Да
Использование указателей C2 : Нет
Коррекция смещения при чтении : 48
Способность читать области Lead-in и Lead-out : Нет
Заполнение пропущенных сэмплов тишиной : Да
Удаление блоков с тишиной в начале и конце : Нет
При вычислениях CRC использовались нулевые сэмплы : Да
Интерфейс : Установленный внешний ASPI-интерфейс
Выходной формат : Внутренние WAV-операции
Формат сэмплов : 44.100 Гц; 16 бит; стерео
TOC извлечённого CD
Трек | Старт | Длительность | Начальный сектор | Конечный сектор
---------------------------------------------------------------------
1 | 0:00.00 | 4:48.40 | 0 | 21639
2 | 4:48.40 | 4:02.72 | 21640 | 39861
3 | 8:51.37 | 4:35.43 | 39862 | 60529
4 | 13:27.05 | 5:12.57 | 60530 | 83986
5 | 18:39.62 | 5:02.40 | 83987 | 106676
6 | 23:42.27 | 4:30.45 | 106677 | 126971
7 | 28:12.72 | 3:34.70 | 126972 | 143091
8 | 31:47.67 | 4:57.40 | 143092 | 165406
9 | 36:45.32 | 4:36.35 | 165407 | 186141
10 | 41:21.67 | 4:45.28 | 186142 | 207544
11 | 46:07.20 | 5:06.50 | 207545 | 230544
12 | 51:13.70 | 7:15.25 | 230545 | 263194
13 | 58:29.20 | 18:40.67 | 263195 | 347261
Характеристики диапазона извлечения и сообщения об ошибках
Выбранный диапазон
Имя файла E:\Torrents.Ru - Projects\Various -The Best Of JDC Records - Spin It\Various -The Best Of JDC Records - Spin It\Various - The Best Of JDC Records - Spin It.wav
Пиковый уровень 100.0 %
Качество диапазона 100.0 %
CRC копии 2E2A2D9B
Копирование... OK
Ошибок не произошло
AccurateRip: сводка
Трек 1 точное извлечение (доверие 1) [1CA65765]
Трек 2 точное извлечение (доверие 1) [A6BE9D3D]
Трек 3 точное извлечение (доверие 1) [6AD0B164]
Трек 4 точное извлечение (доверие 1) [34D2DBFE]
Трек 5 точное извлечение (доверие 1) [C2BB887C]
Трек 6 точное извлечение (доверие 1) [6D39953B]
Трек 7 точное извлечение (доверие 1) [3D334C3E]
Трек 8 точное извлечение (доверие 1) [F5F97AE5]
Трек 9 точное извлечение (доверие 1) [77EC65F1]
Трек 10 точное извлечение (доверие 1) [BD2A61D2]
Трек 11 точное извлечение (доверие 1) [EA74C9FE]
Трек 12 точное извлечение (доверие 1) [18ED8004]
Трек 13 точное извлечение (доверие 1) [5E90DD86]
Все треки извлечены точно
Конец отчёта

[494.9 MB] Скачать / Download