(Disco) Irene Cara - Carasmatic (1st Press Japan) - 1987, FLAC (image+.cue), lossless - Скачать


Жанр:Disco
Страна-производитель диска:Japan
Год издания диска:1987
Издатель (лейбл):Warner-Pioneer Corporation
Номер по каталогу:32XD-716
Аудиокодек:FLAC (*.flac)
Тип рипа:image+.cue
Битрейт аудио:lossless
Продолжительность:40:02
Наличие сканов в содержимом раздачи:да
Источник (релизер):
Carasmatic:
01. Get A Grip [0:04:58.67]
02. Give Me Love [0:03:58.45]
03. We're Gonna Get Up [0:04:42.68]
04. Now That It's Over [0:04:20.25]
05. Say Goodnight Irene [0:04:38.07]
06. Don't Wanna Let Go [0:03:32.58]
07. Girlfriends [0:04:14.67]
08. Be Your Number One [0:05:31.38]
09. Falling In Love [0:04:04.17]

torrent, альбом, mp3, скачать, soundtrack, pop-music, download, pop, трек, песни, торрент, поп-музыка, композиции, бесплатно, музыка, поп, высокое качество, lossless, cd, дискография, альбом

 Exact Audio Copy V0.99 prebeta 5 from 4. May 2009
EAC extraction logfile from 8. September 2011, 15:29
Irene Cara / Carasmatic
Used drive : PIONEER DVD-RW DVR-112D Adapter: 2 ID: 0
Read mode : Secure
Utilize accurate stream : Yes
Defeat audio cache : Yes
Make use of C2 pointers : No
Read offset correction : 48
Overread into Lead-In and Lead-Out : No
Fill up missing offset samples with silence : Yes
Delete leading and trailing silent blocks : No
Null samples used in CRC calculations : Yes
Used interface : Installed external ASPI interface
Used output format : User Defined Encoder
Selected bitrate : 1024 kBit/s
Quality : High
Add ID3 tag : No
Command line compressor : C:\Program Files (x86)\Exact Audio Copy\Flac\flac.exe
Additional command line options : -5 -V -T "ARTIST=%a" -T "TITLE=%t" -T "ALBUM=%g" -T "DATE=%y" -T "TRACKNUMBER=%n" -T "GENRE=%m" -T "COMMENT=EAC FLAC -5" %s
TOC of the extracted CD
Track | Start | Length | Start sector | End sector
---------------------------------------------------------
1 | 0:00.00 | 4:58.67 | 0 | 22416
2 | 4:58.67 | 3:58.45 | 22417 | 40311
3 | 8:57.37 | 4:42.68 | 40312 | 61529
4 | 13:40.30 | 4:20.25 | 61530 | 81054
5 | 18:00.55 | 4:38.07 | 81055 | 101911
6 | 22:38.62 | 3:32.58 | 101912 | 117869
7 | 26:11.45 | 4:14.67 | 117870 | 136986
8 | 30:26.37 | 5:31.38 | 136987 | 161849
9 | 35:58.00 | 4:04.17 | 161850 | 180166
Range status and errors
Selected range
Filename F:\Irene Cara - Carasmatic - 1987 (Japan)\Irene Cara - Carasmatic.wav
Peak level 100.0 %
Range quality 100.0 %
Test CRC 21725F6B
Copy CRC 21725F6B
Copy OK
No errors occurred
AccurateRip summary
Track 1 not present in database
Track 2 not present in database
Track 3 not present in database
Track 4 not present in database
Track 5 not present in database
Track 6 not present in database
Track 7 not present in database
Track 8 not present in database
Track 9 not present in database
None of the tracks are present in the AccurateRip database
End of status report

[471.1 MB] Скачать / Download