(Disco/Italo-Funk) Jimmy Ross - First True Love Affair - 1993, APE (image+.cue), lossless - Скачать

Жанр:Disco/Italo-Funk
Год выпуска диска:1993
Производитель диска:Canada - Unidisc
Аудио кодек:APE
Тип рипа:image+.cue
Битрейт аудио:lossless
Продолжительность:1:04:45
Трэклист:
01. First True Love Affair 6:17
02. Fall Into A Trance 5:28
03. Sad Sam 3:45
04. Chocolate Ice 5:52
05. Love Will Never Die 5:44
06. My Life 6:20
07. S.O.S. Of Love 6:38
08. Fall Into A Trance (Remix) 5:43
09. New York To Moscow (Edit) 5:10
10. First True Love Affair (A Larry Levan Mix) 7:10
11. Fall Into A Trance (Remix 2) 6:38

Доп.информация:
Абсолютно все рипы сделаны с оригинальных CD из моей коллекции !!!
Полные сканы обложек и дисков прилагаются (600dpi, PNG) !!!

трек, композиции, поп, музыка, lossless, скачать, soundtrack, поп-музыка, mp3, download, pop-music, cd, альбом, дискография, pop, песни, торрент, бесплатно, torrent, высокое качество, альбом

Обратите внимание !!!
Материал выложен ИСКЛЮЧИТЕЛЬНО для ознакомления, так что не забудьте, пожалуйста,
удалить его с жёсткого диска после ознакомления, пойти в магазин и купить оригинальное издание !!!
Jimmy Ross - First True Love Affair From Discogs
Back
Отчет EAC
Exact Audio Copy V0.99 prebeta 5 from 4. May 2009
Отчёт EAC об извлечении, выполненном 20. сентября 2009, 22:35
Jimmy Ross / First True Love Affair
Дисковод: Optiarc DVD RW AD-5200A Adapter: 0 ID: 0
Режим чтения : Достоверность
Использование точного потока : Да
Отключение кэша аудио : Да
Использование указателей C2 : Нет
Коррекция смещения при чтении : 48
Способность читать области Lead-in и Lead-out : Нет
Заполнение пропущенных сэмплов тишиной : Да
Удаление блоков с тишиной в начале и конце : Нет
При вычислениях CRC использовались нулевые сэмплы : Да
Интерфейс : Установленный внешний ASPI-интерфейс
Выходной формат : Внутренние WAV-операции
Формат сэмплов : 44.100 Гц; 16 бит; стерео
TOC извлечённого CD
Трек | Старт | Длительность | Начальный сектор | Конечный сектор
---------------------------------------------------------------------
1 | 0:00.00 | 6:16.47 | 0 | 28246
2 | 6:16.47 | 5:28.05 | 28247 | 52851
3 | 11:44.52 | 3:45.18 | 52852 | 69744
4 | 15:29.70 | 5:51.47 | 69745 | 96116
5 | 21:21.42 | 5:44.23 | 96117 | 121939
6 | 27:05.65 | 6:19.47 | 121940 | 150411
7 | 33:25.37 | 6:38.33 | 150412 | 180294
8 | 40:03.70 | 5:43.37 | 180295 | 206056
9 | 45:47.32 | 5:10.08 | 206057 | 229314
10 | 50:57.40 | 7:10.35 | 229315 | 261599
11 | 58:08.00 | 6:37.45 | 261600 | 291419
Характеристики диапазона извлечения и сообщения об ошибках
Выбранный диапазон
Имя файла E:\Jimmy Ross - First True Love Affair\Jimmy Ross - First True Love Affair.wav
Пиковый уровень 100.0 %
Качество диапазона 99.9 %
CRC теста 775AE0C8
CRC копии 775AE0C8
Копирование... OK
Ошибок не произошло
AccurateRip: сводка
Трек 1 нет в базе данных
Трек 2 нет в базе данных
Трек 3 нет в базе данных
Трек 4 нет в базе данных
Трек 5 нет в базе данных
Трек 6 нет в базе данных
Трек 7 нет в базе данных
Трек 8 нет в базе данных
Трек 9 нет в базе данных
Трек 10 нет в базе данных
Трек 11 нет в базе данных
Ни одного трека нет в базе AccurateRip
Конец отчёта
Материал выложен ИСКЛЮЧИТЕЛЬНО для ознакомления, так что не забудьте, пожалуйста,
удалить его с жёсткого диска после ознакомления, пойти в магазин и купить оригинальное издание !!!
Exact Audio Copy V0.99 prebeta 5 from 4. May 2009
Отчёт EAC об извлечении, выполненном 20. сентября 2009, 22:35
Jimmy Ross / First True Love Affair
Дисковод: Optiarc DVD RW AD-5200A Adapter: 0 ID: 0
Режим чтения : Достоверность
Использование точного потока : Да
Отключение кэша аудио : Да
Использование указателей C2 : Нет
Коррекция смещения при чтении : 48
Способность читать области Lead-in и Lead-out : Нет
Заполнение пропущенных сэмплов тишиной : Да
Удаление блоков с тишиной в начале и конце : Нет
При вычислениях CRC использовались нулевые сэмплы : Да
Интерфейс : Установленный внешний ASPI-интерфейс
Выходной формат : Внутренние WAV-операции
Формат сэмплов : 44.100 Гц; 16 бит; стерео
TOC извлечённого CD
Трек | Старт | Длительность | Начальный сектор | Конечный сектор
---------------------------------------------------------------------
1 | 0:00.00 | 6:16.47 | 0 | 28246
2 | 6:16.47 | 5:28.05 | 28247 | 52851
3 | 11:44.52 | 3:45.18 | 52852 | 69744
4 | 15:29.70 | 5:51.47 | 69745 | 96116
5 | 21:21.42 | 5:44.23 | 96117 | 121939
6 | 27:05.65 | 6:19.47 | 121940 | 150411
7 | 33:25.37 | 6:38.33 | 150412 | 180294
8 | 40:03.70 | 5:43.37 | 180295 | 206056
9 | 45:47.32 | 5:10.08 | 206057 | 229314
10 | 50:57.40 | 7:10.35 | 229315 | 261599
11 | 58:08.00 | 6:37.45 | 261600 | 291419
Характеристики диапазона извлечения и сообщения об ошибках
Выбранный диапазон
Имя файла E:\Jimmy Ross - First True Love Affair\Jimmy Ross - First True Love Affair.wav
Пиковый уровень 100.0 %
Качество диапазона 99.9 %
CRC теста 775AE0C8
CRC копии 775AE0C8
Копирование... OK
Ошибок не произошло
AccurateRip: сводка
Трек 1 нет в базе данных
Трек 2 нет в базе данных
Трек 3 нет в базе данных
Трек 4 нет в базе данных
Трек 5 нет в базе данных
Трек 6 нет в базе данных
Трек 7 нет в базе данных
Трек 8 нет в базе данных
Трек 9 нет в базе данных
Трек 10 нет в базе данных
Трек 11 нет в базе данных
Ни одного трека нет в базе AccurateRip
Конец отчёта

[486.9 MB] Скачать / Download