(Disco) OFF - Electrica Salsa (Single) - 1987, APE (image+.cue), lossless - Скачать

Жанр: Disco
Год выпуска диска: 1987
Производитель диска: Germany
Аудио кодек: APE
Тип рипа: image+.cue
Битрейт аудио: lossless
Продолжительность: 17:42
Трэклист:
1. Electrica Salsa (Baba Baba)
2. Electrica Salsa (Dub Version)
3. Step By Step

поп, mp3, download, песни, высокое качество, альбом, дискография, soundtrack, pop, pop-music, композиции, трек, скачать, альбом, бесплатно, lossless, торрент, поп-музыка, музыка, torrent, cd

Exact Audio Copy V0.99 prebeta 4 from 23. January 2008
EAC extraction logfile from 29. June 2008, 17:10
Off / Electrica Salsa
Used drive : ASUS DVD-E616A2 Adapter: 0 ID: 0
Read mode : Secure
Utilize accurate stream : Yes
Defeat audio cache : Yes
Make use of C2 pointers : No
Read offset correction : 6
Overread into Lead-In and Lead-Out : No
Fill up missing offset samples with silence : Yes
Delete leading and trailing silent blocks : No
Null samples used in CRC calculations : Yes
Used interface : Installed external ASPI interface
Used output format : Monkey's Audio Lossless Encoder v3.99 DLL
Sample format : High Lossless Compression
TOC of the extracted CD
Track | Start | Length | Start sector | End sector
---------------------------------------------------------
1 | 0:00.00 | 5:51.00 | 0 | 26324
2 | 5:51.00 | 5:55.00 | 26325 | 52949
3 | 11:46.00 | 5:57.00 | 52950 | 79724
Range status and errors
Selected range
Filename C:\Documents and Settings\Serg\Мои документы\Downloads\Off - Electrica Salsa (lossless, image + cue)\Off - Electrica Salsa.ape
Peak level 97.3 %
Range quality 100.0 %
Copy CRC 1FC20C23
Copy OK
No errors occurred
End of status report

[91.5 MB] Скачать / Download