(Disco) Ottawan - D.I.S.C.O. & II - 2001, APE (image+.cue), lossless - Скачать

Жанр: Disco
Год выпуска диска: 2001
Производитель диска: Russia
Аудио кодек: APE
Тип рипа: image+.cue
Битрейт аудио: lossless
Продолжительность: 79:45
Трэклист:
01. D.I.S.C.O. 04:57
02. Hello Rio! 04:23
03. Shalala Song 03:36
04. Tant Que Durera La Nuit 04:14
05. Help, Get Me Some Help! 04:25
06. You're OK 05:07
07. Comme aux USA 03:31
08. D.I.S.C.O. (french version) 03:33
09. Hands Up (Give Me Your Heart) 04:45
10. Siesta For Two 03:57
11. A.I.E. is My Song 03:22
12. Sing Along with The Juke-box 03:56
13. Crazy Music 05:24
14. It's A Top Secret 03:11
15. Shubidube Love 02:46
16. Doudou Rumba 03:29
17. Hands Up (instrumental) 00:47
18. Pam'N'Pat - To Be Superman 04:21
19. Pam'N'Pat - It's All Music 03:39
20. Bisquit - Zoo Zoo 06:13
Доп. информация: На данном диске два первых альбома 1980,1981 г.

mp3, дискография, torrent, pop-music, soundtrack, скачать, поп, трек, бесплатно, музыка, композиции, pop, поп-музыка, альбом, торрент, lossless, альбом, высокое качество, песни, cd, download

Exact Audio Copy V0.99 prebeta 3 from 28. July 2007
EAC Auslese-Logdatei vom 21. September 2008, 16:37
Ottawan / D.I.S.C.O. & II
Benutztes Laufwerk : SONY DVD RW DW-Q31A Adapter: 0 ID: 0
Lesemodus : Sicher
Benutze Accurate Stream : Ja
Audio Puffer abgeschaltet : Ja
Benutze C2 Fehlerinformationen : Nein
Leseoffset Korrektur : 6
Überlesen in das Lead-In und Lead-Out : Nein
Fülle fehlende Offsetsample mit Stille auf : Ja
Lösche führende und nachfolgende stille Blöcke : Nein
Null Samples gehen in CRC Berechnungen ein : Ja
Benutzte Schnittstelle : Installierte externe ASPI Schnittstelle
Benutztes Ausgabeformat : Interne WAV Routinen
Sampleformat : 44.100 Hz; 16 Bit; Stereo
TOC der ausgelesenen CD
Track | Start | Länge | Startsektor | Endsektor
-------------------------------------------------------
1 | 0:00.00 | 4:57.07 | 0 | 22281
2 | 4:57.07 | 4:23.64 | 22282 | 42070
3 | 9:20.71 | 3:36.23 | 42071 | 58293
4 | 12:57.19 | 4:14.36 | 58294 | 77379
5 | 17:11.55 | 4:25.08 | 77380 | 97262
6 | 21:36.63 | 5:07.48 | 97263 | 120335
7 | 26:44.36 | 3:31.53 | 120336 | 136213
8 | 30:16.14 | 3:33.24 | 136214 | 152212
9 | 33:49.38 | 4:45.60 | 152213 | 173647
10 | 38:35.23 | 3:57.33 | 173648 | 191455
11 | 42:32.56 | 3:22.74 | 191456 | 206679
12 | 45:55.55 | 3:56.13 | 206680 | 224392
13 | 49:51.68 | 5:24.70 | 224393 | 248762
14 | 55:16.63 | 3:11.24 | 248763 | 263111
15 | 58:28.12 | 2:46.37 | 263112 | 275598
16 | 61:14.49 | 3:29.56 | 275599 | 291329
17 | 64:44.30 | 0:47.07 | 291330 | 294861
18 | 65:31.37 | 4:21.31 | 294862 | 314467
19 | 69:52.68 | 3:39.04 | 314468 | 330896
20 | 73:31.72 | 6:13.46 | 330897 | 358917
Bereichsstatus und Fehler
Gewählter Bereich
Dateiname C:\Ottawan - D.I.S.C.O. & II\Ottawan - D.I.S.C.O. & II.wav
Spitzenpegel 100.0 %
Bereichsqualität 100.0 %
Kopie CRC 061C9FA4
Kopie OK
Keine Fehler aufgetreten
AccurateRip Übersicht
Track 1 nicht in Datenbank enthalten
Track 2 nicht in Datenbank enthalten
Track 3 nicht in Datenbank enthalten
Track 4 nicht in Datenbank enthalten
Track 5 nicht in Datenbank enthalten
Track 6 nicht in Datenbank enthalten
Track 7 nicht in Datenbank enthalten
Track 8 nicht in Datenbank enthalten
Track 9 nicht in Datenbank enthalten
Track 10 nicht in Datenbank enthalten
Track 11 nicht in Datenbank enthalten
Track 12 nicht in Datenbank enthalten
Track 13 nicht in Datenbank enthalten
Track 14 nicht in Datenbank enthalten
Track 15 nicht in Datenbank enthalten
Track 16 nicht in Datenbank enthalten
Track 17 nicht in Datenbank enthalten
Track 18 nicht in Datenbank enthalten
Track 19 nicht in Datenbank enthalten
Track 20 nicht in Datenbank enthalten
Keiner der Tracks ist in der AccurateRip Datenbank vorhanden
Ende des Statusreports

[535.8 MB] Скачать / Download