(Disco) Peter Jacques Band - 2 Albums - 1979-1981, FLAC (image+.cue), lossless - Скачать

Fire Night Dance
Жанр: Disco
Год выпуска диска: 2002
Аудио кодек: FLAC
Тип рипа: image+.cue
Битрейт аудио: lossless
Трэклист:
01. Walking On Music 08:27
02. Devil's Run 08:25
03. Fire Night Dance 08:41
04. Fly With The Wind 08:49
Доп. информация:Welcome Back
Год выпуска диска: 2002
Аудио кодек: FLAC
Тип рипа: image+.cue
Битрейт аудио: lossless
Трэклист:
01. Counting On Love "One-Two-Three" 05:14
02. Welcome Back 06:17
03. The Louder 06:55
04. Is It It 05:04
05. Exotical Ly 05:48
06. Mighty Fine 05:23Пара диско раритетов

pop, альбом, pop-music, композиции, песни, бесплатно, torrent, soundtrack, музыка, поп-музыка, торрент, альбом, скачать, lossless, поп, download, cd, высокое качество, дискография, mp3, трек

Exact Audio Copy V0.99 prebeta 4 from 23. January 2008
Отчёт EAC об извлечении, выполненном 26. августа 2008, 13:13
Peter Jacques Band / Fire Night Dance
Дисковод: SONY CD-RW CRX230ED Adapter: 1 ID: 1
Режим чтения : Достоверность
Использование точного потока : Да
Отключение кэша аудио : Да
Использование указателей C2 : Нет
Коррекция смещения при чтении : 6
Способность читать области Lead-in и Lead-out : Нет
Заполнение пропущенных сэмплов тишиной : Да
Удаление блоков с тишиной в начале и конце : Нет
При вычислениях CRC использовались нулевые сэмплы : Нет
Интерфейс : Установленный внешний ASPI-интерфейс
Выходной формат : Пользовательский кодировщик
Выбранный битрейт : 768 kBit/s
Качество : Высокий
Добавление ID3-тэга : Да
Утилита сжатия : C:\Program Files\Exact Audio Copy\FLAC\FLAC.EXE
Дополнительные параметры : -6 -V -T "ARTIST=%a" -T "TITLE=%t" -T "ALBUM=%g" -T "DATE=%y" -T "TRACKNUMBER=%n" -T "GENRE=%m" -T "COMMENT=%e" %s -o %d
Смещение при сжатии : 0
TOC извлечённого CD
Трек | Старт | Длительность | Начальный сектор | Конечный сектор
---------------------------------------------------------------------
1 | 0:00.00 | 8:27.17 | 0 | 38041
2 | 8:27.17 | 8:25.44 | 38042 | 75960
3 | 16:52.61 | 8:41.07 | 75961 | 115042
4 | 25:33.68 | 8:49.44 | 115043 | 154761
Характеристики диапазона извлечения и сообщения об ошибках
Выбранный диапазон
Имя файла C:\МUSIC\Обмен\Peter Jacques Band - Fire Night Dance.wav
Пиковый уровень 100.0 %
Качество диапазона 100.0 %
CRC копии FB131FC0
Копирование... OK
Ошибок не произошло
AccurateRip: сводка
Трек 1 нет в базе данных
Трек 2 нет в базе данных
Трек 3 нет в базе данных
Трек 4 нет в базе данных
Ни одного трека нет в базе AccurateRip
Конец отчёта
Exact Audio Copy V0.99 prebeta 4 from 23. January 2008
Отчёт EAC об извлечении, выполненном 26. августа 2008, 14:10
Peter Jacques Band / Welcome Back
Дисковод: SONY CD-RW CRX230ED Adapter: 1 ID: 1
Режим чтения : Достоверность
Использование точного потока : Да
Отключение кэша аудио : Да
Использование указателей C2 : Нет
Коррекция смещения при чтении : 6
Способность читать области Lead-in и Lead-out : Нет
Заполнение пропущенных сэмплов тишиной : Да
Удаление блоков с тишиной в начале и конце : Нет
При вычислениях CRC использовались нулевые сэмплы : Нет
Интерфейс : Установленный внешний ASPI-интерфейс
Выходной формат : Пользовательский кодировщик
Выбранный битрейт : 768 kBit/s
Качество : Высокий
Добавление ID3-тэга : Да
Утилита сжатия : C:\Program Files\Exact Audio Copy\FLAC\FLAC.EXE
Дополнительные параметры : -6 -V -T "ARTIST=%a" -T "TITLE=%t" -T "ALBUM=%g" -T "DATE=%y" -T "TRACKNUMBER=%n" -T "GENRE=%m" -T "COMMENT=%e" %s -o %d
Смещение при сжатии : 0
TOC извлечённого CD
Трек | Старт | Длительность | Начальный сектор | Конечный сектор
---------------------------------------------------------------------
1 | 0:00.00 | 5:14.24 | 0 | 23573
2 | 5:14.24 | 6:17.64 | 23574 | 51912
3 | 11:32.13 | 6:55.07 | 51913 | 83044
4 | 18:27.20 | 5:04.46 | 83045 | 105890
5 | 23:31.66 | 5:48.74 | 105891 | 132064
6 | 29:20.65 | 5:23.52 | 132065 | 156341
Характеристики диапазона извлечения и сообщения об ошибках
Выбранный диапазон
Имя файла C:\МUSIC\Обмен\Peter Jacques Band - Welcome Back.wav
Пиковый уровень 100.0 %
Качество диапазона 100.0 %
CRC теста F5024828
CRC копии F5024828
Копирование... OK
Ошибок не произошло
AccurateRip: сводка
Трек 1 нет в базе данных
Трек 2 нет в базе данных
Трек 3 нет в базе данных
Трек 4 нет в базе данных
Трек 5 нет в базе данных
Трек 6 нет в базе данных
Ни одного трека нет в базе AccurateRip
Конец отчёта

[455.2 MB] Скачать / Download