(Disco/Pop) VA - Hot Remix (Commodores, Mai Tai, Divine, Billy Ocean, Eddy Huntington, Erasure, Midnight Star) - 1987, FLAC (tracks+.cue), lossless - Скачать

Жанр: Disco/Pop
Носитель: CD
Страна-производитель диска: Netherlands
Год издания: 1987
Издатель (лейбл): Arcade
Номер по каталогу: 01 0242 61
Аудиокодек: FLAC (*.flac)
Тип рипа: tracks+.cue
Битрейт аудио: lossless
Продолжительность: 01:04:40
Наличие сканов в содержимом раздачи: нет
Треклист:
01.Commodores- Goin' To The Bank (Credit Card Mix) [Edit] (6:37)
02.Billy Ocean- Bittersweet (Extended Mix) (6:31)
03.Eddy Huntington- USSR (12" Mix) (5:18)
04.Centerfold- Radar Love (Club Mix) [Edit] (5:53)
05.Erasure- Sometimes (3:37)
06.Spencer Jones- Miss Friday (12" Mix) (5:55)
07.Midnight Star- Midas Touch (3:40)
08.Mai Tai- 1 Touch 2 Much (Mix Mix By Ben Liebrand) (4:03)
09.S.O.S. Band- The Finest (Extended Version) (6:04)
10.RAWW- Don't You Try It (12" Mix) (6:25)
11.Divine- Little Baby (Original Mix) (3:54)
12.Propaganda For Frankie- Relax/P. Machinery (6:43)

торрент, бесплатно, pop, высокое качество, mp3, композиции, cd, альбом, lossless, музыка, дискография, torrent, поп, скачать, download, поп-музыка, альбом, soundtrack, pop-music, трек, песни

 CUERipper v2.1.4 Copyright (C) 2008-12 Grigory Chudov
EAC extraction logfile from 18. December 2013, 11:23
Various / Hot Remix
Used drive : HL-DT-ST DVD-ROM GDRH20N Adapter: 1 ID: 0
Read mode : Secure
Utilize accurate stream : Yes
Defeat audio cache : Yes
Make use of C2 pointers : No
Read offset correction : 102
Overread into Lead-In and Lead-Out : No
Fill up missing offset samples with silence : Yes
Delete leading and trailing silent blocks : No
Null samples used in CRC calculations : Yes
Used interface : Native Win32 interface for Win NT & 2000
Gap handling : Appended to previous track
Used output format : Internal WAV Routines
Sample format : 44.100 Hz; 16 Bit; Stereo
TOC of the extracted CD
Track | Start | Length | Start sector | End sector
---------------------------------------------------------
1 | 0:00.00 | 6:37.10 | 0 | 29784
2 | 6:37.10 | 6:31.50 | 29785 | 59159
3 | 13:08.60 | 5:18.37 | 59160 | 83046
4 | 18:27.22 | 5:53.55 | 83047 | 109576
5 | 24:21.02 | 3:37.10 | 109577 | 125861
6 | 27:58.12 | 5:55.40 | 125862 | 152526
7 | 33:53.52 | 3:40.13 | 152527 | 169039
8 | 37:33.65 | 4:03.15 | 169040 | 187279
9 | 41:37.05 | 6:04.42 | 187280 | 214621
10 | 47:41.47 | 6:25.40 | 214622 | 243536
11 | 54:07.12 | 3:54.20 | 243537 | 261106
12 | 58:01.32 | 6:43.43 | 261107 | 291374
Track 1
Filename C:\CDripps\Various - Hot Remix - 1987 - NL - Acarde - 01 0242 61\01 - Commodores - Goin to the bank.wav
Pre-gap length 0:00:02.00
Peak level 89.1 %
Track quality 100.0 %
Copy CRC 2C345D93
Accurately ripped (confidence 1) [E7751908]
Copy OK
Track 2
Filename C:\CDripps\Various - Hot Remix - 1987 - NL - Acarde - 01 0242 61\02 - Billy Ocean - Bittersweet.wav
Pre-gap length 0:00:01.73
Peak level 89.1 %
Track quality 100.0 %
Copy CRC 65DA0C12
Accurately ripped (confidence 1) [F32CE901]
Copy OK
Track 3
Filename C:\CDripps\Various - Hot Remix - 1987 - NL - Acarde - 01 0242 61\03 - Eddy Huntington - USSR.wav
Pre-gap length 0:00:01.50
Peak level 87.0 %
Track quality 100.0 %
Copy CRC 18A2DBA5
Accurately ripped (confidence 1) [301DF1D8]
Copy OK
Track 4
Filename C:\CDripps\Various - Hot Remix - 1987 - NL - Acarde - 01 0242 61\04 - Centerfold - Radar love.wav
Pre-gap length 0:00:01.42
Peak level 87.0 %
Track quality 100.0 %
Copy CRC B97AA80F
Accurately ripped (confidence 1) [06A25CB9]
Copy OK
Track 5
Filename C:\CDripps\Various - Hot Remix - 1987 - NL - Acarde - 01 0242 61\05 - Erasure - Sometimes.wav
Pre-gap length 0:00:01.80
Peak level 87.0 %
Track quality 100.0 %
Copy CRC DF7F196F
Accurately ripped (confidence 1) [D241AF0F]
Copy OK
Track 6
Filename C:\CDripps\Various - Hot Remix - 1987 - NL - Acarde - 01 0242 61\06 - Spencer Jones - Miss Friday.wav
Pre-gap length 0:00:01.42
Peak level 87.0 %
Track quality 100.0 %
Copy CRC B2B1C8E5
Cannot be verified as accurate (confidence 1) [CB7BE6AF], AccurateRip returned [BC8C9F8D]
Copy OK
Track 7
Filename C:\CDripps\Various - Hot Remix - 1987 - NL - Acarde - 01 0242 61\07 - Midnight Star - Midas Touch.wav
Pre-gap length 0:00:01.62
Peak level 87.0 %
Track quality 100.0 %
Copy CRC 28C082C3
Accurately ripped (confidence 1) [E41A26AA]
Copy OK
Track 8
Filename C:\CDripps\Various - Hot Remix - 1987 - NL - Acarde - 01 0242 61\08 - Mai Tai - 1 touch 2 much.wav
Pre-gap length 0:00:00.57
Peak level 87.0 %
Track quality 100.0 %
Copy CRC 8DEAC9F8
Accurately ripped (confidence 1) [5A695F05]
Copy OK
Track 9
Filename C:\CDripps\Various - Hot Remix - 1987 - NL - Acarde - 01 0242 61\09 - S.O.S. Band - The finest.wav
Pre-gap length 0:00:01.93
Peak level 87.0 %
Track quality 100.0 %
Copy CRC 33087EF1
Accurately ripped (confidence 1) [0556124B]
Copy OK
Track 10
Filename C:\CDripps\Various - Hot Remix - 1987 - NL - Acarde - 01 0242 61\10 - RAWW - Don't you try it.wav
Pre-gap length 0:00:01.73
Peak level 87.0 %
Track quality 100.0 %
Copy CRC 8A2322AE
Accurately ripped (confidence 1) [B16936C2]
Copy OK
Track 11
Filename C:\CDripps\Various - Hot Remix - 1987 - NL - Acarde - 01 0242 61\11 - Divine - Little baby.wav
Pre-gap length 0:00:01.42
Peak level 87.0 %
Track quality 100.0 %
Copy CRC C5D14F8E
Accurately ripped (confidence 1) [FD47F52B]
Copy OK
Track 12
Filename C:\CDripps\Various - Hot Remix - 1987 - NL - Acarde - 01 0242 61\12 - Propaganda For Frankie - Relax_P. Machinery.wav
Pre-gap length 0:00:00.93
Peak level 87.0 %
Track quality 100.0 %
Copy CRC 85602E9C
Accurately ripped (confidence 1) [A3966FF9]
Copy OK
11 track(s) accurately ripped
Some tracks could not be verified as accurate
No errors occurred
End of status report
 REM DISCID B60F2D0C
PERFORMER "Various"
TITLE "Hot Remix"
REM DATE 1987
REM GENRE "Pop"
REM COMMENT "YEAR: 1987"
FILE "01 - Commodores - Goin to the bank.flac" WAVE
TRACK 01 AUDIO
PERFORMER "Commodores"
TITLE "Goin to the bank"
INDEX 01 00:00:00
TRACK 02 AUDIO
PERFORMER "Billy Ocean"
TITLE "Bittersweet"
INDEX 00 06:35:30
FILE "02 - Billy Ocean - Bittersweet.flac" WAVE
INDEX 01 00:00:00
TRACK 03 AUDIO
PERFORMER "Eddy Huntington"
TITLE "USSR"
INDEX 00 06:30:12
FILE "03 - Eddy Huntington - USSR.flac" WAVE
INDEX 01 00:00:00
TRACK 04 AUDIO
PERFORMER "Centerfold"
TITLE "Radar love"
INDEX 00 05:17:05
FILE "04 - Centerfold - Radar love.flac" WAVE
INDEX 01 00:00:00
TRACK 05 AUDIO
PERFORMER "Erasure"
TITLE "Sometimes"
INDEX 00 05:51:70
FILE "05 - Erasure - Sometimes.flac" WAVE
INDEX 01 00:00:00
TRACK 06 AUDIO
PERFORMER "Spencer Jones"
TITLE "Miss Friday"
INDEX 00 03:35:53
FILE "06 - Spencer Jones - Miss Friday.flac" WAVE
INDEX 01 00:00:00
TRACK 07 AUDIO
PERFORMER "Midnight Star"
TITLE "Midas Touch"
INDEX 00 05:53:68
FILE "07 - Midnight Star - Midas Touch.flac" WAVE
INDEX 01 00:00:00
TRACK 08 AUDIO
PERFORMER "Mai Tai"
TITLE "1 touch 2 much"
INDEX 00 03:39:45
FILE "08 - Mai Tai - 1 touch 2 much.flac" WAVE
INDEX 01 00:00:00
TRACK 09 AUDIO
PERFORMER "S.O.S. Band"
TITLE "The finest"
INDEX 00 04:01:20
FILE "09 - S.O.S. Band - The finest.flac" WAVE
INDEX 01 00:00:00
TRACK 10 AUDIO
PERFORMER "RAWW"
TITLE "Don't you try it"
INDEX 00 06:02:62
FILE "10 - RAWW - Don't you try it.flac" WAVE
INDEX 01 00:00:00
TRACK 11 AUDIO
PERFORMER "Divine"
TITLE "Little baby"
INDEX 00 06:24:08
FILE "11 - Divine - Little baby.flac" WAVE
INDEX 01 00:00:00
TRACK 12 AUDIO
PERFORMER "Propaganda For Frankie"
TITLE "Relax/P. Machinery"
INDEX 00 03:53:25
FILE "12 - Propaganda For Frankie - Relax_P. Machinery.flac" WAVE
INDEX 01 00:00:00

[426.6 MB] Скачать / Download