(Disco/Pop/Rock) Samantha Fox - Greatest Hits (2 CD) - 2009, APE (image+.cue), lossless - Скачать

Жанр: Disco/Pop/Rock
Год выпуска диска: 2009
Производитель диска: EU
Аудио кодек: APE
Тип рипа: image+.cue
Битрейт аудио: lossless
Продолжительность: 2:18:56
Официальный сборник, выпущенный на Sony Music 14 декабря 2009 года,
Deluxe Edition, remastered
Трэклист:
Отчёты ЕАС
CD1: The Hits And More
Exact Audio Copy V0.99 prebeta 4 from 23. January 2008
Отчёт EAC об извлечении, выполненном 2. января 2010, 16:40
Samantha Fox / Greatest Hits [cd1]
Дисковод: Optiarc DVD RW AD-7220A Adapter: 1 ID: 1
Режим чтения : Достоверность
Использование точного потока : Да
Отключение кэша аудио : Да
Использование указателей C2 : Нет
Коррекция смещения при чтении : 6
Способность читать области Lead-in и Lead-out : Нет
Заполнение пропущенных сэмплов тишиной : Да
Удаление блоков с тишиной в начале и конце : Нет
При вычислениях CRC использовались нулевые сэмплы : Да
Интерфейс : Установленный внешний ASPI-интерфейс
Выходной формат : Внутренние WAV-операции
Формат сэмплов : 44.100 Гц; 16 бит; стерео
TOC извлечённого CD
Трек | Старт | Длительность | Начальный сектор | Конечный сектор
---------------------------------------------------------------------
1 | 0:00.00 | 3:47.02 | 0 | 17026
2 | 3:47.02 | 3:48.63 | 17027 | 34189
3 | 7:35.65 | 3:58.43 | 34190 | 52082
4 | 11:34.33 | 3:44.20 | 52083 | 68902
5 | 15:18.53 | 3:57.21 | 68903 | 86698
6 | 19:15.74 | 3:52.63 | 86699 | 104161
7 | 23:08.62 | 4:34.42 | 104162 | 124753
8 | 27:43.29 | 3:22.44 | 124754 | 139947
9 | 31:05.73 | 3:35.38 | 139948 | 156110
10 | 34:41.36 | 2:44.34 | 156111 | 168444
11 | 37:25.70 | 3:39.45 | 168445 | 184914
12 | 41:05.40 | 3:58.58 | 184915 | 202822
13 | 45:04.23 | 3:58.51 | 202823 | 220723
14 | 49:02.74 | 3:03.27 | 220724 | 234475
15 | 52:06.26 | 2:50.57 | 234476 | 247282
16 | 54:57.08 | 4:39.35 | 247283 | 268242
17 | 59:36.43 | 4:17.21 | 268243 | 287538
18 | 63:53.64 | 3:24.50 | 287539 | 302888
19 | 67:18.39 | 3:33.38 | 302889 | 318901
20 | 70:52.02 | 3:48.33 | 318902 | 336034
Характеристики диапазона извлечения и сообщения об ошибках
Выбранный диапазон
Имя файла E:\pop-music.pro\раздачи\Samantha Fox\CD1\Samantha Fox - Greatest Hits [cd1].wav
Пиковый уровень 97.9 %
Качество диапазона 100.0 %
CRC теста 4625770E
CRC копии 4625770E
Копирование... OK
Ошибок не произошло
Конец отчёта
CD2: Rare and previously unrealised
Exact Audio Copy V0.99 prebeta 4 from 23. January 2008
Отчёт EAC об извлечении, выполненном 2. января 2010, 17:14
Samantha Fox / Greatest Hits [cd2]
Дисковод: Optiarc DVD RW AD-7220A Adapter: 1 ID: 1
Режим чтения : Достоверность
Использование точного потока : Да
Отключение кэша аудио : Да
Использование указателей C2 : Нет
Коррекция смещения при чтении : 6
Способность читать области Lead-in и Lead-out : Нет
Заполнение пропущенных сэмплов тишиной : Да
Удаление блоков с тишиной в начале и конце : Нет
При вычислениях CRC использовались нулевые сэмплы : Да
Интерфейс : Установленный внешний ASPI-интерфейс
Выходной формат : Внутренние WAV-операции
Формат сэмплов : 44.100 Гц; 16 бит; стерео
TOC извлечённого CD
Трек | Старт | Длительность | Начальный сектор | Конечный сектор
---------------------------------------------------------------------
1 | 0:00.00 | 7:03.15 | 0 | 31739
2 | 7:03.15 | 4:57.68 | 31740 | 54082
3 | 12:01.08 | 5:32.27 | 54083 | 79009
4 | 17:33.35 | 5:17.50 | 79010 | 102834
5 | 22:51.10 | 3:22.54 | 102835 | 118038
6 | 26:13.64 | 5:20.12 | 118039 | 142050
7 | 31:34.01 | 6:11.24 | 142051 | 169899
8 | 37:45.25 | 3:38.31 | 169900 | 186280
9 | 41:23.56 | 3:59.74 | 186281 | 204279
10 | 45:23.55 | 3:23.68 | 204280 | 219572
11 | 48:47.48 | 3:05.41 | 219573 | 233488
12 | 51:53.14 | 6:22.39 | 233489 | 262177
13 | 58:15.53 | 6:01.22 | 262178 | 289274
Характеристики диапазона извлечения и сообщения об ошибках
Выбранный диапазон
Имя файла E:\pop-music.pro\раздачи\Samantha Fox\CD2\Samantha Fox - Greatest Hits [cd2].wav
Пиковый уровень 98.8 %
Качество диапазона 100.0 %
CRC теста D7AF012B
CRC копии D7AF012B
Копирование... OK
Ошибок не произошло
Конец отчёта

torrent, трек, pop-music, композиции, поп-музыка, альбом, lossless, высокое качество, дискография, торрент, pop, скачать, download, альбом, поп, cd, бесплатно, музыка, mp3, soundtrack, песни

1. Touch Me (I Want Your Body)
2. Do Ya Do Ya (Wanna Please Me)
3. I'm All You Need
4. Nothing's Gonna Stop Me Now
5. I Surrender (To The Spirit Of The Night)
6. I Promise You (Get Ready)
7. True Devotion
8. Naughty Girls (Need Love Too)
9. Love House
10. I Only Wanna Be With You
11. Hold On Tight
12. I Wanna Have Some Fun
13. Another Woman
14. Go For The Heart With Sox
15. Santa Maria With Dj Milano
16. Confession
17. Perhaps
18. Angel With An Attitude
19. Tomorrow Marc Mysterio Feat. Samantha Fox
20. Touch Me (I Want Your Body) '09 Sleazesisters Radio Mix
1. Nothing's Gonna Stop Me Now Club Mix
2. I Only Wanna Be With You 12" Mix
3. You Started Something 12" Mix
4. Too Late To Say Goodbye 12" Mix
5. Go For The Heart Italian Underground Radio Version
6. Another Woman 12" Mix
7. Santa Maria Club Mix
8. I Wanna Rock And Roll All Night
9. To Be Heard
10. Dreams Unfold
11. Don't Cheat On Me
12. Tomorrow Marc Mysterio Feat. Samantha Fox/Groove Stage Big Room Mix
13. Touch Me (I Want Your Body) '09 Sleazesisters Club Mix

[966.1 MB] Скачать / Download