(Disco/Pop) Samantha Fox - Samantha Fox (Japan) - 1987, FLAC (image+.cue), lossless - Скачать

Жанр:Disco/Pop
Год выпуска диска:1987
Производитель диска:Japan Jive 32XB-170
Аудио кодек:FLAC
Тип рипа:image+.cue
Битрейт аудио:lossless
Продолжительность:53:10
Наличие сканов в содержимом раздачи:да
Источник (релизер):
C РАЗДАЧИ УШЕЛ!!!
Samantha Fox:
01. (I can't Get No) Satisfaction [0:05:36.70]
02. I Surrender (To the Spirit of the Night) [0:03:52.37]
03. I Promise You [0:03:56.45]
04. Naughty Girls [0:05:14.55]
05. True Devotion [0:04:37.73]
06. Nothing's Gonna Stop Me Now [0:03:46.02]
07. If Music be the Food of Love [0:04:52.28]
08. That Sensation [0:04:21.35]
09. Dream City [0:04:55.25]
10. The Best is Yet to Come [0:04:51.60]
11. Nothing's Gonna Stop Me Now (Extended) [0:07:05.07]

композиции, трек, дискография, торрент, бесплатно, pop, soundtrack, музыка, высокое качество, pop-music, поп-музыка, скачать, mp3, cd, поп, альбом, lossless, песни, альбом, torrent, download

 Exact Audio Copy V0.99 prebeta 5 from 4. May 2009
EAC extraction logfile from 15. December 2009, 19:38
Samantha Fox / Samantha Fox
Used drive : ASUS DRW-1608P Adapter: 2 ID: 0
Read mode : Secure
Utilize accurate stream : Yes
Defeat audio cache : Yes
Make use of C2 pointers : No
Read offset correction : 48
Overread into Lead-In and Lead-Out : No
Fill up missing offset samples with silence : Yes
Delete leading and trailing silent blocks : No
Null samples used in CRC calculations : Yes
Used interface : Installed external ASPI interface
Used output format : User Defined Encoder
Selected bitrate : 1024 kBit/s
Quality : High
Add ID3 tag : No
Command line compressor : C:\Program Files (x86)\Exact Audio Copy\Flac\flac.exe
Additional command line options : -5 -V -T "ARTIST=%a" -T "TITLE=%t" -T "ALBUM=%g" -T "DATE=%y" -T "TRACKNUMBER=%n" -T "GENRE=%m" -T "COMMENT=EAC FLAC -5" %s
TOC of the extracted CD
Track | Start | Length | Start sector | End sector
---------------------------------------------------------
1 | 0:00.00 | 5:36.70 | 0 | 25269
2 | 5:36.70 | 3:52.37 | 25270 | 42706
3 | 9:29.32 | 3:56.45 | 42707 | 60451
4 | 13:26.02 | 5:14.55 | 60452 | 84056
5 | 18:40.57 | 4:37.73 | 84057 | 104904
6 | 23:18.55 | 3:46.02 | 104905 | 121856
7 | 27:04.57 | 4:52.28 | 121857 | 143784
8 | 31:57.10 | 4:21.35 | 143785 | 163394
9 | 36:18.45 | 4:55.25 | 163395 | 185544
10 | 41:13.70 | 4:51.60 | 185545 | 207429
11 | 46:05.55 | 7:05.07 | 207430 | 239311
Range status and errors
Selected range
Filename F:\Samantha Fox - 1987 (Japan)\Samantha Fox - Samantha Fox.wav
Peak level 94.2 %
Range quality 99.9 %
Test CRC 4F7BBC84
Copy CRC 4F7BBC84
Copy OK
No errors occurred
AccurateRip summary
Track 1 accurately ripped (confidence 1) [269380D8]
Track 2 accurately ripped (confidence 1) [5111A394]
Track 3 accurately ripped (confidence 1) [643356D2]
Track 4 accurately ripped (confidence 1) [952277D4]
Track 5 accurately ripped (confidence 1) [C5A7DD21]
Track 6 accurately ripped (confidence 1) [890B2B30]
Track 7 accurately ripped (confidence 1) [976E9D79]
Track 8 accurately ripped (confidence 1) [CD22F712]
Track 9 accurately ripped (confidence 1) [5870E91B]
Track 10 accurately ripped (confidence 1) [17205B44]
Track 11 accurately ripped (confidence 1) [900C4BBA]
All tracks accurately ripped
End of status report

[380.6 MB] Скачать / Download