(Disco/Pop) Sinitta - Wicked (Japan) - 1990, FLAC (image+.cue), lossless - Скачать

Жанр:Disco/Pop
Год выпуска диска:1990
Производитель диска:Japan Victor Musical Industries VICP-1
Аудио кодек:FLAC
Тип рипа:image+.cue
Битрейт аудио:lossless
Продолжительность:57:16
Наличие сканов в содержимом раздачи:да
Источник (релизер):
С РАЗДАЧИ УШЕЛ!!!
Wicked:
01. Right Back Where We Started From
02. Hitchin' A Ride
03. Love Love Love
04. Lay Me Down Easy
05. Don't Tell Me Not To Cry
06. Love On A Mountain Top
07. I Don't Believe In Miracles
08. I Just Wanna Spend Some Time With You
09. You Keep Me Hanging On
10. Body Shopping
11. I Just Can't Help It
12. It Would Be So Nice
13. Where Do Nice Girls Go
14. Right Back Where We Started From(12" Remix)
15. Love On A Mountain Top(12" Remix)

альбом, pop, скачать, торрент, поп-музыка, бесплатно, трек, lossless, песни, поп, pop-music, download, mp3, soundtrack, cd, дискография, композиции, музыка, torrent, альбом, высокое качество

 Exact Audio Copy V0.99 prebeta 5 from 4. May 2009
EAC extraction logfile from 25. July 2009, 17:33
Sinitta / Wicked
Used drive : ASUS DRW-1608P Adapter: 2 ID: 0
Read mode : Secure
Utilize accurate stream : Yes
Defeat audio cache : Yes
Make use of C2 pointers : No
Read offset correction : 48
Overread into Lead-In and Lead-Out : No
Fill up missing offset samples with silence : Yes
Delete leading and trailing silent blocks : No
Null samples used in CRC calculations : Yes
Used interface : Installed external ASPI interface
Used output format : User Defined Encoder
Selected bitrate : 1024 kBit/s
Quality : High
Add ID3 tag : No
Command line compressor : C:\Program Files (x86)\Exact Audio Copy\Flac\flac.exe
Additional command line options : -5 -V -T "ARTIST=%a" -T "TITLE=%t" -T "ALBUM=%g" -T "DATE=%y" -T "TRACKNUMBER=%n" -T "GENRE=%m" -T "COMMENT=EAC FLAC -5" %s
TOC of the extracted CD
Track | Start | Length | Start sector | End sector
---------------------------------------------------------
1 | 0:00.37 | 3:12.60 | 37 | 14496
2 | 3:13.22 | 3:39.00 | 14497 | 30921
3 | 6:52.22 | 3:45.38 | 30922 | 47834
4 | 10:37.60 | 3:42.20 | 47835 | 64504
5 | 14:20.05 | 3:51.10 | 64505 | 81839
6 | 18:11.15 | 3:22.47 | 81840 | 97036
7 | 21:33.62 | 3:27.08 | 97037 | 112569
8 | 25:00.70 | 3:25.30 | 112570 | 127974
9 | 28:26.25 | 3:28.65 | 127975 | 143639
10 | 31:55.15 | 3:17.05 | 143640 | 158419
11 | 35:12.20 | 3:41.50 | 158420 | 175044
12 | 38:53.70 | 3:30.65 | 175045 | 190859
13 | 42:24.60 | 3:43.15 | 190860 | 207599
14 | 46:08.00 | 5:17.07 | 207600 | 231381
15 | 51:25.07 | 5:51.30 | 231382 | 257736
Range status and errors
Selected range
Filename F:\Sinitta (Japan)\1990 - Wicked\Sinitta - Wicked.wav
Peak level 100.0 %
Range quality 100.0 %
Test CRC 831CF18D
Copy CRC 831CF18D
Copy OK
No errors occurred
AccurateRip summary
Track 1 not present in database
Track 2 not present in database
Track 3 not present in database
Track 4 not present in database
Track 5 not present in database
Track 6 not present in database
Track 7 not present in database
Track 8 not present in database
Track 9 not present in database
Track 10 not present in database
Track 11 not present in database
Track 12 not present in database
Track 13 not present in database
Track 14 not present in database
Track 15 not present in database
None of the tracks are present in the AccurateRip database
End of status report

[516.9 MB] Скачать / Download