(Disco, Reggae, Funk, Soul) Nana Love - Disco Documentary - Full Of Funk - 1978 (Remastered 2014), FLAC (tracks+.cue), lossless - Скачать

Жанр: Disco, Reggae, Funk, Soul
Носитель: CD
Страна-производитель диска (релиза): UK
Год издания: 1978
Год издания CD: 2014
Издатель (лейбл): BBE
Номер по каталогу: BBE250ACD
Страна исполнителя (группы): London
Аудиокодек: FLAC (*.flac)
Тип рипа: tracks+.cue
Битрейт аудио: lossless
Продолжительность: 00:53:56
Источник (релизер): artmuss
Наличие сканов в содержимом раздачи: Front, Back
Треклист:
01. I'm In Love (11:47)
02. We Gonna Stay For the Party (07:49)
03. Talking About Music (03:43)
04. Disco Lover (03:44)
05. Sahara / Chains of Love (02:55)
Bonus Tracks
06. Hang On Baby (08:52)
07. When the Heart Decides (03:09)
08. Reach Out My Hand (03:04)
09. Loving Feeling (Dance Mix) (05:33)
10. Loving Feeling (Instrumental) (02:51)

Раздаю до первых 5-ти скачавших, на раздачи не возвращаюсь...

mp3, трек, download, soundtrack, pop, высокое качество, торрент, lossless, поп-музыка, альбом, поп, композиции, дискография, альбом, cd, скачать, pop-music, torrent, бесплатно, песни, музыка

 X Lossless Decoder version 20161007 (149.3)
XLD extraction logfile from 2017-01-04 07:52:41 +0100
Nana Love / Disco Documentary - Full Of Funk [BBE250ACD]
Used drive : Optiarc DVD RW AD-5280S (revision 1.Z7)
Media type : Pressed CD
Ripper mode : XLD Secure Ripper
Disable audio cache : OK for the drive with a cache less than 1375KiB
Make use of C2 pointers : NO
Read offset correction : 48
Max retry count : 20
Gap status : Analyzed, Appended (except HTOA)
TOC of the extracted CD
Track | Start | Length | Start sector | End sector
---------------------------------------------------------
1 | 00:00:00 | 11:50:51 | 0 | 53300
2 | 11:50:51 | 07:51:56 | 53301 | 88681
3 | 19:42:32 | 03:45:57 | 88682 | 105613
4 | 23:28:14 | 03:46:40 | 105614 | 122603
5 | 27:14:54 | 02:57:48 | 122604 | 135926
6 | 30:12:27 | 08:54:25 | 135927 | 176001
7 | 39:06:52 | 03:11:37 | 176002 | 190363
8 | 42:18:14 | 03:06:52 | 190364 | 204365
9 | 45:24:66 | 05:35:50 | 204366 | 229540
10 | 51:00:41 | 02:53:70 | 229541 | 242585
AccurateRip Summary
Disc not found in AccurateRip DB.
All Tracks
Statistics
Read error : 0
Jitter error (maybe fixed) : 0
Retry sector count : 0
Damaged sector count : 0
Track 01
Filename : /Users/bork/Desktop/Disco Documentary - Full Of Funk [BBE250ACD]/01 Nana Love - I'm In Love.flac
Pre-gap length : 00:02:00
CRC32 hash (test run) : 29BC473C
CRC32 hash : 29BC473C
CRC32 hash (skip zero) : 555DF35F
AccurateRip v1 signature : AD028B86
AccurateRip v2 signature : 9CF873AE
->Track not present in AccurateRip database.
Statistics
Read error : 0
Jitter error (maybe fixed) : 0
Retry sector count : 0
Damaged sector count : 0
Track 02
Filename : /Users/bork/Desktop/Disco Documentary - Full Of Funk [BBE250ACD]/02 Nana Love - We Gonna Stay For The Party.flac
Pre-gap length : 00:01:58
CRC32 hash (test run) : BE4DA485
CRC32 hash : BE4DA485
CRC32 hash (skip zero) : 2A21F2EF
AccurateRip v1 signature : 4E9F3C4C
AccurateRip v2 signature : E5EC5D2B
->Track not present in AccurateRip database.
Statistics
Read error : 0
Jitter error (maybe fixed) : 0
Retry sector count : 0
Damaged sector count : 0
Track 03
Filename : /Users/bork/Desktop/Disco Documentary - Full Of Funk [BBE250ACD]/03 Nana Love - Talking About Music.flac
Pre-gap length : 00:01:58
CRC32 hash (test run) : CF7993BF
CRC32 hash : CF7993BF
CRC32 hash (skip zero) : E2B4CC09
AccurateRip v1 signature : 5F1391E7
AccurateRip v2 signature : C027AF08
->Track not present in AccurateRip database.
Statistics
Read error : 0
Jitter error (maybe fixed) : 0
Retry sector count : 0
Damaged sector count : 0
Track 04
Filename : /Users/bork/Desktop/Disco Documentary - Full Of Funk [BBE250ACD]/04 Nana Love - Disco Lover.flac
Pre-gap length : 00:01:58
CRC32 hash (test run) : F2615F3A
CRC32 hash : F2615F3A
CRC32 hash (skip zero) : 625AFE6C
AccurateRip v1 signature : 77439DA1
AccurateRip v2 signature : 726F572A
->Track not present in AccurateRip database.
Statistics
Read error : 0
Jitter error (maybe fixed) : 0
Retry sector count : 0
Damaged sector count : 0
Track 05
Filename : /Users/bork/Desktop/Disco Documentary - Full Of Funk [BBE250ACD]/05 Nana Love - Sahara - Chains Of Love.flac
Pre-gap length : 00:01:58
CRC32 hash (test run) : 7D1F3A66
CRC32 hash : 7D1F3A66
CRC32 hash (skip zero) : 30D2B1BC
AccurateRip v1 signature : C106E251
AccurateRip v2 signature : A659B766
->Track not present in AccurateRip database.
Statistics
Read error : 0
Jitter error (maybe fixed) : 0
Retry sector count : 0
Damaged sector count : 0
Track 06
Filename : /Users/bork/Desktop/Disco Documentary - Full Of Funk [BBE250ACD]/06 Nana Love - Hang On Baby.flac
Pre-gap length : 00:01:58
CRC32 hash (test run) : CD2FEAD6
CRC32 hash : CD2FEAD6
CRC32 hash (skip zero) : 6F0E2C4B
AccurateRip v1 signature : 9EFA9EEB
AccurateRip v2 signature : 2B0067F0
->Track not present in AccurateRip database.
Statistics
Read error : 0
Jitter error (maybe fixed) : 0
Retry sector count : 0
Damaged sector count : 0
Track 07
Filename : /Users/bork/Desktop/Disco Documentary - Full Of Funk [BBE250ACD]/07 Nana Love - When The Heart Decides.flac
Pre-gap length : 00:01:58
CRC32 hash (test run) : BA4B4C9E
CRC32 hash : BA4B4C9E
CRC32 hash (skip zero) : 7D55593D
AccurateRip v1 signature : E25567E7
AccurateRip v2 signature : 28B0A416
->Track not present in AccurateRip database.
Statistics
Read error : 0
Jitter error (maybe fixed) : 0
Retry sector count : 0
Damaged sector count : 0
Track 08
Filename : /Users/bork/Desktop/Disco Documentary - Full Of Funk [BBE250ACD]/08 Nana Love - Reach Out My Hand.flac
Pre-gap length : 00:01:58
CRC32 hash (test run) : B5D7DA6B
CRC32 hash : B5D7DA6B
CRC32 hash (skip zero) : 24E77F3A
AccurateRip v1 signature : 57EBF93A
AccurateRip v2 signature : 80123828
->Track not present in AccurateRip database.
Statistics
Read error : 0
Jitter error (maybe fixed) : 0
Retry sector count : 0
Damaged sector count : 0
Track 09
Filename : /Users/bork/Desktop/Disco Documentary - Full Of Funk [BBE250ACD]/09 Nana Love - Loving Feeling (dance mix).flac
Pre-gap length : 00:01:58
CRC32 hash (test run) : BF7D2862
CRC32 hash : BF7D2862
CRC32 hash (skip zero) : BAA8DE3B
AccurateRip v1 signature : 2D63BD3C
AccurateRip v2 signature : 03B738F5
->Track not present in AccurateRip database.
Statistics
Read error : 0
Jitter error (maybe fixed) : 0
Retry sector count : 0
Damaged sector count : 0
Track 10
Filename : /Users/bork/Desktop/Disco Documentary - Full Of Funk [BBE250ACD]/10 Nana Love - Loving Feeling (instrumental).flac
Pre-gap length : 00:01:58
CRC32 hash (test run) : ECCDC645
CRC32 hash : ECCDC645
CRC32 hash (skip zero) : 93B0CE24
AccurateRip v1 signature : 3D46CE30
AccurateRip v2 signature : 3E14FBB7
->Track not present in AccurateRip database.
Statistics
Read error : 0
Jitter error (maybe fixed) : 0
Retry sector count : 0
Damaged sector count : 0
No errors occurred
End of status report
 TITLE "Disco Documentary - Full Of Funk [BBE250ACD]"
PERFORMER "Nana Love"
REM GENRE "Pop"
REM DATE "2014"
REM DISCNUMBER 1
REM TOTALDISCS 1
REM DISCID 760CA20A
FILE "01. I'm In Love.flac" WAVE
TRACK 01 AUDIO
TITLE "I'm In Love"
PERFORMER "Nana Love"
ISRC GBEQT1400263
INDEX 01 00:00:00
TRACK 02 AUDIO
TITLE "We Gonna Stay For The Party"
PERFORMER "Nana Love"
ISRC GBEQT1400264
INDEX 00 11:48:68
FILE "02. We Gonna Stay For The Party.flac" WAVE
INDEX 01 00:00:00
TRACK 03 AUDIO
TITLE "Talking About Music"
PERFORMER "Nana Love"
ISRC GBEQT1400265
INDEX 00 07:49:73
FILE "03. Talking About Music.flac" WAVE
INDEX 01 00:00:00
TRACK 04 AUDIO
TITLE "Disco Lover"
PERFORMER "Nana Love"
ISRC GBEQT1400266
INDEX 00 03:43:74
FILE "04. Disco Lover.flac" WAVE
INDEX 01 00:00:00
TRACK 05 AUDIO
TITLE "Sahara / Chains Of Love"
PERFORMER "Nana Love"
ISRC GBEQT1400267
INDEX 00 03:44:57
FILE "05. Sahara - Chains Of Love.flac" WAVE
INDEX 01 00:00:00
TRACK 06 AUDIO
TITLE "Hang On Baby"
PERFORMER "Nana Love"
ISRC GBEQT1400268
INDEX 00 02:55:65
FILE "06. Hang On Baby.flac" WAVE
INDEX 01 00:00:00
TRACK 07 AUDIO
TITLE "When The Heart Decides"
PERFORMER "Nana Love"
ISRC GBEQT1400269
INDEX 00 08:52:42
FILE "07. When The Heart Decides.flac" WAVE
INDEX 01 00:00:00
TRACK 08 AUDIO
TITLE "Reach Out My Hand"
PERFORMER "Nana Love"
ISRC GBEQT1400270
INDEX 00 03:09:54
FILE "08. Reach Out My Hand.flac" WAVE
INDEX 01 00:00:00
TRACK 09 AUDIO
TITLE "Loving Feeling (dance mix)"
PERFORMER "Nana Love"
ISRC GBEQT1400271
INDEX 00 03:04:69
FILE "09. Loving Feeling (dance mix).flac" WAVE
INDEX 01 00:00:00
TRACK 10 AUDIO
TITLE "Loving Feeling (instrumental)"
PERFORMER "Nana Love"
ISRC GBEQT1400272
INDEX 00 05:33:67
FILE "10. Loving Feeling (instrumental).flac" WAVE
INDEX 01 00:00:00
 foobar2000 1.1.10 / Dynamic Range Meter 1.1.1
log date: 2018-06-09 13:00:55
--------------------------------------------------------------------------------
Analyzed: Nana Love / Disco Documentary - Full Of Funk [BBE250ACD]
--------------------------------------------------------------------------------
DR Peak RMS Duration Track
--------------------------------------------------------------------------------
DR7 -0.02 dB -8.62 dB 11:51 ?-I'm In Love
DR9 -0.02 dB -9.70 dB 7:52 ?-We Gonna Stay For The Party
DR7 -0.02 dB -8.17 dB 3:46 ?-Talking About Music
DR7 -0.02 dB -7.78 dB 3:47 ?-Disco Lover
DR7 -0.02 dB -9.01 dB 2:58 ?-Sahara / Chains Of Love
DR7 -0.02 dB -7.98 dB 8:54 ?-Hang On Baby
DR6 -0.02 dB -7.33 dB 3:11 ?-When The Heart Decides
DR7 -0.02 dB -8.37 dB 3:07 ?-Reach Out My Hand
DR7 -0.02 dB -8.30 dB 5:36 ?-Loving Feeling (dance mix)
DR8 -0.02 dB -9.26 dB 2:54 ?-Loving Feeling (instrumental)
--------------------------------------------------------------------------------
Number of tracks: 10
Official DR value: DR7
Samplerate: 44100 Hz
Channels: 2
Bits per sample: 16
Bitrate: 877 kbps
Codec: FLAC
================================================================================
 Digitally remastered and expanded edition of one of the most 'mysterious' Afro-Disco records produced in the late 70s. The original master tapes were uncovered and in the process of restoring the tapes, un-released material was discovered, enriching this very special package. Nana Love's work, is a testament to the music's most redeeming qualities: great musicianship, funky basslines and killer breaks. As a singer/songwriter in the leading role throughout, she (with production by Reindorf Oppong) lends a wonderfully balanced approach to the arrangements. The result is a set of tracks that are positioned carefully at the forward thinking crossroads of Disco, Boogie and Soul and Funk. Her band included six of the original Boney M members as well as the legendary Harry Mosco and was recorded in London in 1978, in the same studio as Boney M recorded alongside David Bowie. This album makes US think; would there ever have been a Studio 54 in Ghana in late 70's If so these would have been the recordings that would have packed the dance floor with their deep root in Disco, Soul and Funk! 
Alto Saxophone, Flute – Humphrey Okoh-Turner
Bass – Grek Haywood
Clavinet, Synthesizer – Adrian S. Bennette
Drums – Tony Martin
Lead Guitar – Paul Pryce
Lead Guitar, Trumpet, Saxophone [Extra] – Harry Mosco
Percussion – Ayindi
Piano – Richard Reid
Rhythm Guitar – Les Forrest

[347.4 MB] Скачать / Download