(Disco) Samantha vs. Sabrina - Call Me - 2010, APE (image+.cue), lossless - Скачать

Жанр: Disco
Год выпуска диска: 2010
Производитель диска: Italy
Аудио кодек: APE
Тип рипа: image+.cue
Битрейт аудио: lossless
Источник: Оригинальный сд (X-Energy X 33011.09 CD)
Трэклист:
01. Call Me - Samantha vs. Sabrina
02. In The Morning - Sabrina Salerno
03. I Give Myself To You RMX - Samantha Fox
04. Gringo RMX - Sabrina Salerno
05. Call Me - Samantha Fox
06. Call Me - Sabrina Salerno
Bonus Remixes:
07. Call me (Andrea T. Mendoza vs. Tibet Yes Club Mix)
08. Call Me (Starlet DJs Club Mix)
09. Call Me (Sleazesisters Club Mix)
10. Call Me (Williamsburg trash Bar Mix)Сканы на 600dpi .tiff в комплекте

pop-music, альбом, альбом, поп, soundtrack, песни, поп-музыка, трек, бесплатно, скачать, mp3, дискография, музыка, pop, композиции, cd, торрент, высокое качество, lossless, download, torrent

Exact Audio Copy V0.99 prebeta 5 from 4. May 2009
Отчёт EAC об извлечении, выполненном 6. июля 2010, 21:47
SAMANTHA vs SABRINA / CALL ME e.p.
Дисковод: TEAC CD-W552G Adapter: 1 ID: 0
Режим чтения : Достоверность
Использование точного потока : Да
Отключение кэша аудио : Да
Использование указателей C2 : Нет
Коррекция смещения при чтении : 6
Способность читать области Lead-in и Lead-out : Нет
Заполнение пропущенных сэмплов тишиной : Да
Удаление блоков с тишиной в начале и конце : Нет
При вычислениях CRC использовались нулевые сэмплы : Да
Интерфейс : Встроенный Win32-интерфейс для Win NT/2000
Выходной формат : Внутренние WAV-операции
Формат сэмплов : 44.100 Гц; 16 бит; стерео
TOC извлечённого CD
Трек | Старт | Длительность | Начальный сектор | Конечный сектор
---------------------------------------------------------------------
1 | 0:00.00 | 3:39.00 | 0 | 16424
2 | 3:39.00 | 3:50.07 | 16425 | 33681
3 | 7:29.07 | 5:08.06 | 33682 | 56787
4 | 12:37.13 | 3:36.18 | 56788 | 73005
5 | 16:13.31 | 3:38.69 | 73006 | 89424
6 | 19:52.25 | 3:39.01 | 89425 | 105850
7 | 23:31.26 | 7:11.62 | 105851 | 138237
8 | 30:43.13 | 7:03.33 | 138238 | 169995
9 | 37:46.46 | 8:00.29 | 169996 | 206024
10 | 45:47.00 | 5:24.58 | 206025 | 230382
11 | 53:43.58 | 7:21.61 | 241783 | 274918
Характеристики диапазона извлечения и сообщения об ошибках
Выбранный диапазон
Имя файла D:\EAC\SAMANTHA vs SABRINA - CALL ME e.p..wav
Пиковый уровень 100.0 %
Качество диапазона 100.0 %
CRC теста 6E209DB6
CRC копии 6E209DB6
Копирование... OK
Ошибок не произошло
AccurateRip: сводка
Трек 1 нет в базе данных
Трек 2 нет в базе данных
Трек 3 нет в базе данных
Трек 4 нет в базе данных
Трек 5 нет в базе данных
Трек 6 нет в базе данных
Трек 7 нет в базе данных
Трек 8 нет в базе данных
Трек 9 нет в базе данных
Трек 10 нет в базе данных
Ни одного трека нет в базе AccurateRip
Конец отчёта

[528.6 MB] Скачать / Download