(Disco / Soul) Central Line - Central Line - 2008, WavPack (image+.cue) lossless - Скачать

Жанр: Disco / Soul
Страна-производитель диска: Japan
Год издания диска: 2008
Год издания LP: 1981
Original Label: Mercury
Номер по каталогу: n/a
Страна: UK
Аудио кодек: WavPack (*.wv)
Тип рипа: image+.cue
Битрейт аудио: lossless
Продолжительность: 0:37:06
Источник (релизер): Найдено в сети. Released byRunawayTrane
Наличие сканов в содержимом раздачи: да
Треклист:
1. Walking Into Sunshine [Beckles, Carter, Francis] (5:40)
2. I Need Your Love [Beckles, Lipson, McCorkell] (5:15)
3. Breaking Point [Beckles, Lipson] (5:44)
4. Shake It Up [Beckles, Lipson, McCorkell] (4:44)
5. That's No Way To Treat My Love [Beckles, Carter, Lipson] (4:51)
6. Don't Tell Me (You Know) [Beckles, Lipson, McCorkell] (5:40)
7. Goodbye [Defoe, Hinds, Jeffries] (4:33)

torrent, download, дискография, альбом, cd, lossless, трек, pop, soundtrack, поп-музыка, торрент, скачать, высокое качество, pop-music, mp3, поп, музыка, композиции, песни, альбом, бесплатно

 Exact Audio Copy V0.99 prebeta 5 from 4. May 2009
EAC extraction logfile from 4. December 2009, 11:18
Central Line / Central Line
Used drive : TSSTcorpCD/DVDW SH-S182M Adapter: 5 ID: 0
Read mode : Secure
Utilize accurate stream : Yes
Defeat audio cache : No
Make use of C2 pointers : No
Read offset correction : 6
Overread into Lead-In and Lead-Out : No
Fill up missing offset samples with silence : Yes
Delete leading and trailing silent blocks : No
Null samples used in CRC calculations : Yes
Used interface : Native Win32 interface for Win NT & 2000
Used output format : Internal WAV Routines
Sample format : 44.100 Hz; 16 Bit; Stereo
TOC of the extracted CD
Track | Start | Length | Start sector | End sector
---------------------------------------------------------
1 | 0:00.00 | 5:47.44 | 0 | 26068
2 | 5:47.44 | 5:20.48 | 26069 | 50116
3 | 11:08.17 | 5:47.12 | 50117 | 76153
4 | 16:55.29 | 4:50.24 | 76154 | 97927
5 | 21:45.53 | 4:56.52 | 97928 | 120179
6 | 26:42.30 | 5:47.73 | 120180 | 146277
7 | 32:30.28 | 4:35.58 | 146278 | 166960
Range status and errors
Selected range
Filename C:\EAC\CL-CL_Blq\Central Line - Central Line\Central Line - Central Line.wav
Peak level 99.9 %
Range quality 99.9 %
Test CRC 43C18232
Copy CRC 43C18232
Copy OK
No errors occurred
AccurateRip summary
Track 1 not present in database
Track 2 not present in database
Track 3 not present in database
Track 4 not present in database
Track 5 not present in database
Track 6 not present in database
Track 7 not present in database
None of the tracks are present in the AccurateRip database
End of status report
 -----------------------
DON'T MODIFY THIS FILE
-----------------------
PERFORMER: auCDtect Task Manager, ver. 1.5.1RC3 build 1.5.1.4
Copyright (c) 2008-2010 y-soft. All rights reserved
http://y-soft.org
ANALYZER: auCDtect: CD records authenticity detector, version 0.8.2
Copyright (c) 2004 Oleg Berngardt. All rights reserved.
Copyright (c) 2004 Alexander Djourik. All rights reserved.
FILE: Central Line - Central Line.wv
Size: 232449844 Hash: DC07AD97ABF5361AE69147E28EB49A0B Accuracy: -m0
Conclusion: CDDA 100%
Signature: 2F33BA43E78115E2F91C1A56D0E7EF6527BBF089
Linton Breckles Vocals, Percussion
Camelle Hinds Bass, vocals
Lipson Francis Keyboards
Henry Defoe Guitar (Electric)
Dee Sealy Vocals (Background)
Mel Gaynor Drums
George Chandler Vocals (Background)
Danny Cummings Congas, Bongos, Percussion
Jimmy Chambers Vocals (Background)
Steve Jeffries Keyboards (Track 4)
Greg Walsh Engineer, Mixing
Pete Smith Engineer, Mixing
Pete Walsh Mixing
Bob Carter Producer (Track 3)
Roy Carter Producer, Remixing, Keyboards, Guitar

[222.5 MB] Скачать / Download