(Disco) Star City - I'm A Man - 1998, APE (image+.cue) lossless - Скачать

Жанр: Disco
Страна-производитель диска: Canada
Год издания диска: 1998
Издатель (лейбл): Unidisc
Номер по каталогу: UBK-4037
Аудио кодек: APE (*.ape)
Тип рипа: image+.cue
Битрейт аудио: lossless
Продолжительность: 56:32
Источник (релизер): Собственный рип с фирм. диска
Наличие сканов в содержимом раздачи: да
Доп. информация: Original LP released in 1978 by Marlin (CD Reissue by Unidisc)
Треклист:
1. I'm A Man (12" Mix) (8:41)
2. La La Means I Love You (4:04)
3. I Can't Get Over You (5:43)
4. Melodia (Melody Of Love) (4:02)
5. Make Time For Love (5:02)
6. Good Times (4:10)
7. Born To Be Wild (6:00)
8. Stick It Out (3:39)
9. Eternity [Previously Unreleased] (3:42)
10. Hold Me [Previously Unreleased] (3:37)
11. Sacrifice [Previously Unreleased] (3:49)
12. I'm A Man (Radio Mix) (3:21)

поп, скачать, высокое качество, download, mp3, музыка, torrent, композиции, soundtrack, поп-музыка, бесплатно, песни, lossless, альбом, cd, дискография, pop, pop-music, торрент, трек, альбом

 Exact Audio Copy V0.99 prebeta 5 from 4. May 2009
EAC extraction logfile from 17. October 2010, 14:27
Star City / I'm A Man
Used drive : TSSTcorpCD/DVDW TS-L632D Adapter: 1 ID: 0
Read mode : Secure
Utilize accurate stream : Yes
Defeat audio cache : Yes
Make use of C2 pointers : No
Read offset correction : 6
Overread into Lead-In and Lead-Out : No
Fill up missing offset samples with silence : Yes
Delete leading and trailing silent blocks : No
Null samples used in CRC calculations : Yes
Used interface : Native Win32 interface for Win NT & 2000
Used output format : Internal WAV Routines
Sample format : 44.100 Hz; 16 Bit; Stereo
TOC of the extracted CD
Track | Start | Length | Start sector | End sector
---------------------------------------------------------
1 | 0:00.00 | 8:44.55 | 0 | 39354
2 | 8:44.55 | 4:07.60 | 39355 | 57939
3 | 12:52.40 | 5:46.20 | 57940 | 83909
4 | 18:38.60 | 4:05.05 | 83910 | 102289
5 | 22:43.65 | 5:05.72 | 102290 | 125236
6 | 27:49.62 | 4:13.68 | 125237 | 144279
7 | 32:03.55 | 6:03.60 | 144280 | 171564
8 | 38:07.40 | 3:43.12 | 171565 | 188301
9 | 41:50.52 | 3:45.43 | 188302 | 205219
10 | 45:36.20 | 3:40.35 | 205220 | 221754
11 | 49:16.55 | 3:52.65 | 221755 | 239219
12 | 53:09.45 | 3:22.37 | 239220 | 254406
Range status and errors
Selected range
Filename D:\!!\Star City - I'm A Man.wav
Peak level 100.0 %
Range quality 100.0 %
Test CRC BF7481FC
Copy CRC BF7481FC
Copy OK
No errors occurred
AccurateRip summary
Track 1 not present in database
Track 2 not present in database
Track 3 not present in database
Track 4 not present in database
Track 5 not present in database
Track 6 not present in database
Track 7 not present in database
Track 8 not present in database
Track 9 not present in database
Track 10 not present in database
Track 11 not present in database
Track 12 not present in database
None of the tracks are present in the AccurateRip database
End of status report
Диско-проект John Driscoll и Robert Ouimet (1978-1980 гг.), в котором главные вокальные партии исполнила Karen Silver.
Notes:
Original released 1978, tracks: (1 to 6, 12) released 1978, tracks: (7, 8) released 1980, tracks: (9 to 11) released 1998.
Recorded and mixed at Sigma Sound Studios New York and Larrabee Studios Los Angeles.
Credits:
Artwork By [Album Coordination] - Bob Siegel, Ray Caviano
Photography - Ed Louise
Design - Maxi Chan
Bass - Gilles Maheu
Guitar - Valentino Mancuso
Keyboards, Percussion - Jim Rigon
Producer - John Driscoll
Producer, Arranged By [Percussion] - Robert Ouimet
Vocals - Karen Silver

[382.4 MB] Скачать / Download