(Disco) The Flirts - 12 Inch Classics On CD - 1993, APE (image+.cue), lossless - Скачать

Жанр: Disco
Год выпуска диска: 1993
Производитель диска: Canada
Аудио кодек: APE
Тип рипа: image+.cue
Битрейт аудио: lossless
Продолжительность: 0:33:22
Трэклист:
01 Passion (12'' Remix)
02 Passion (Dub Mix)
03 Danger (Remix)
04 Helpless (You Took My Love)
05 Juke Box (Don't Put Another Dime') (Remix)

pop-music, скачать, альбом, бесплатно, высокое качество, песни, композиции, поп-музыка, альбом, поп, дискография, музыка, трек, download, торрент, lossless, cd, pop, torrent, soundtrack, mp3

Exact Audio Copy V0.99 prebeta 4 from 23. January 2008
Отчёт EAC об извлечении, выполненном 30. октября 2008, 2:49
The Flirts / 12 Inch Classics On CD
Дисковод: PIONEER DVD-RW DVR-108 Adapter: 0 ID: 0
Режим чтения : Достоверность
Использование точного потока : Да
Отключение кэша аудио : Да
Использование указателей C2 : Нет
Коррекция смещения при чтении : 48
Способность читать области Lead-in и Lead-out : Нет
Заполнение пропущенных сэмплов тишиной : Да
Удаление блоков с тишиной в начале и конце : Нет
При вычислениях CRC использовались нулевые сэмплы : Нет
Интерфейс : Встроенный Win32-интерфейс для Win NT/2000
Выходной формат : Monkey's Audio Lossless Encoder v3.99 DLL
Формат сэмплов : High Lossless Compression
TOC извлечённого CD
Трек | Старт | Длительность | Начальный сектор | Конечный сектор
---------------------------------------------------------------------
1 | 0:00.00 | 6:58.15 | 0 | 31364
2 | 6:58.15 | 6:51.35 | 31365 | 62224
3 | 13:49.50 | 6:19.70 | 62225 | 90719
4 | 20:09.45 | 7:45.63 | 90720 | 125657
5 | 27:55.33 | 5:27.07 | 125658 | 150189
Характеристики диапазона извлечения и сообщения об ошибках
Выбранный диапазон
Имя файла D:\Новая папка\The Flirts - 12 Inch Classics On CD.ape
Пиковый уровень 100.0 %
Качество диапазона 100.0 %
CRC копии 09BEDF4D
Копирование... OK
Ошибок не произошло
Конец отчёта

[202.5 MB] Скачать / Download