(Disco) VA - The Best Disco...Ever! (4CD) - 2007, FLAC (image+.cue), lossless - Скачать

Жанр:Disco
Год выпуска диска:2007
Производитель диска:Poland, EMI Music
Аудио кодек:FLAC
Тип рипа:image+.cue
Битрейт аудио:lossless
Продолжительность:4:31:42
Трэклист:

Доп. информация:
Раздача на трекере вmp.3VA - The Best Disco...Ever! (4CD) - 2007, MP3, 320 kbpsСкачано из ослосети. За рип спасибо камраду yaro79! Приятного Вам прослушивания!!! НЕ ЗАБЫВАЕМ НАЖИМАТЬ СПАСИБО! И ОСТАВЛЯТЬ КОММЕНТАРИИ! Пишем, что думаем, но и думаем, что пишем!!!

музыка, поп, поп-музыка, soundtrack, дискография, pop-music, песни, альбом, торрент, torrent, lossless, mp3, pop, высокое качество, трек, cd, композиции, скачать, альбом, download, бесплатно

01. The Piointer Sisters - I'm So Excited (3:47)
02. Village People - Y.M.C.A (3:39)
03. The Rubettes - Sugar Baby Love (3:29)
04. KC & The Sunshine Band - That's The Way (I Like It) (3:01)
05. Gloria Gaynor - I Will Survive (3:14)
06. Earth, Wind & Fire - September (3:35)
07. Quincy Jones - Ai No Corrida (4:19)
08. Donna Summer - Love To Love You (3:21)
09. Barry White - You're The First, The Last, My Everything (3:22)
10. The Weather Girls - It's Raining Men (3:29)
11. Hot Chocolate - You Sexy Thing (4:02)
12. Brass Construction - Movin' (3:48)
13. First Choice - Armed & Extremely Dangerous (2:47)
14. Sister Sledge - We Are Family (3:32)
15. Diana Ross - I'm Coming Out (5:21)
16. Barry Manilow - Copacabana (5:44)
17. Cheryl Lynn - Got To Be Real (5:06)
18. The Hues Corporation - Rock The Boat (3:03)
19. George Clinton - Atomic Dog (3:27)

Отчёт EAC
Exact Audio Copy V0.99 prebeta 3 from 28. July 2007
EAC extraction logfile from 4. October 2007, 3:05
Various / The Best Disco...Ever! CD1
Used drive : HL-DT-STDVDRAM GSA-4163B Adapter: 3 ID: 1
Read mode : Secure
Utilize accurate stream : Yes
Defeat audio cache : Yes
Make use of C2 pointers : No
Read offset correction : 667
Overread into Lead-In and Lead-Out : No
Fill up missing offset samples with silence : Yes
Delete leading and trailing silent blocks : No
Null samples used in CRC calculations : Yes
Used interface : Native Win32 interface for Win NT & 2000
Used output format : Internal WAV Routines
Sample format : 44.100 Hz; 16 Bit; Stereo
TOC of the extracted CD
Track | Start | Length | Start sector | End sector
---------------------------------------------------------
1 | 0:00.00 | 3:46.71 | 0 | 17020
2 | 3:46.71 | 3:39.01 | 17021 | 33446
3 | 7:25.72 | 3:29.17 | 33447 | 49138
4 | 10:55.14 | 3:00.42 | 49139 | 62680
5 | 13:55.56 | 3:14.32 | 62681 | 77262
6 | 17:10.13 | 3:34.54 | 77263 | 93366
7 | 20:44.67 | 4:18.57 | 93367 | 112773
8 | 25:03.49 | 3:21.17 | 112774 | 127865
9 | 28:24.66 | 3:21.56 | 127866 | 142996
10 | 31:46.47 | 3:28.55 | 142997 | 158651
11 | 35:15.27 | 4:02.14 | 158652 | 176815
12 | 39:17.41 | 3:48.27 | 176816 | 193942
13 | 43:05.68 | 2:46.43 | 193943 | 206435
14 | 45:52.36 | 3:31.66 | 206436 | 222326
15 | 49:24.27 | 5:21.19 | 222327 | 246420
16 | 54:45.46 | 5:43.68 | 246421 | 272213
17 | 60:29.39 | 5:06.22 | 272214 | 295185
18 | 65:35.61 | 3:02.70 | 295186 | 308905
19 | 68:38.56 | 3:26.44 | 308906 | 324399
Range status and errors
Selected range
Filename E:\Various - The Best Disco...Ever! CD1.wav
Peak level 99.4 %
Range quality 100.0 %
Test CRC B8DF5802
Copy CRC B8DF5802
Copy OK
No errors occurred
End of status report

Отчёт Audiochecker
AUDIOCHECKER v2.0 beta (build 457) - by Dester - [email protected]
~~~~~~~~~~~~~~~~~~~~~~~~~~~~~~~~~~
Начато: четверг, 13. 11. 2008. - 17:05.46
Найдено файлов: 1
1 -===- C:\LOSSLESS\Various - The Best Disco... Ever! (2007) 4CD\CD1\Various - The Best Disco...Ever! CD1.flac
Извлечение успешно выполнено
Заключение: этот трек - CDDA с вероятностью 100%
Временный файл удалён.
Завершено: четверг, 13. 11. 2008. - 17:12.45 (Время операции: 0:06.58)
Exact Audio Copy V0.99 prebeta 3 from 28. July 2007
EAC extraction logfile from 4. October 2007, 3:05
Various / The Best Disco...Ever! CD1
Used drive : HL-DT-STDVDRAM GSA-4163B Adapter: 3 ID: 1
Read mode : Secure
Utilize accurate stream : Yes
Defeat audio cache : Yes
Make use of C2 pointers : No
Read offset correction : 667
Overread into Lead-In and Lead-Out : No
Fill up missing offset samples with silence : Yes
Delete leading and trailing silent blocks : No
Null samples used in CRC calculations : Yes
Used interface : Native Win32 interface for Win NT & 2000
Used output format : Internal WAV Routines
Sample format : 44.100 Hz; 16 Bit; Stereo
TOC of the extracted CD
Track | Start | Length | Start sector | End sector
---------------------------------------------------------
1 | 0:00.00 | 3:46.71 | 0 | 17020
2 | 3:46.71 | 3:39.01 | 17021 | 33446
3 | 7:25.72 | 3:29.17 | 33447 | 49138
4 | 10:55.14 | 3:00.42 | 49139 | 62680
5 | 13:55.56 | 3:14.32 | 62681 | 77262
6 | 17:10.13 | 3:34.54 | 77263 | 93366
7 | 20:44.67 | 4:18.57 | 93367 | 112773
8 | 25:03.49 | 3:21.17 | 112774 | 127865
9 | 28:24.66 | 3:21.56 | 127866 | 142996
10 | 31:46.47 | 3:28.55 | 142997 | 158651
11 | 35:15.27 | 4:02.14 | 158652 | 176815
12 | 39:17.41 | 3:48.27 | 176816 | 193942
13 | 43:05.68 | 2:46.43 | 193943 | 206435
14 | 45:52.36 | 3:31.66 | 206436 | 222326
15 | 49:24.27 | 5:21.19 | 222327 | 246420
16 | 54:45.46 | 5:43.68 | 246421 | 272213
17 | 60:29.39 | 5:06.22 | 272214 | 295185
18 | 65:35.61 | 3:02.70 | 295186 | 308905
19 | 68:38.56 | 3:26.44 | 308906 | 324399
Range status and errors
Selected range
Filename E:\Various - The Best Disco...Ever! CD1.wav
Peak level 99.4 %
Range quality 100.0 %
Test CRC B8DF5802
Copy CRC B8DF5802
Copy OK
No errors occurred
End of status report
AUDIOCHECKER v2.0 beta (build 457) - by Dester - [email protected]
~~~~~~~~~~~~~~~~~~~~~~~~~~~~~~~~~~
Начато: четверг, 13. 11. 2008. - 17:05.46
Найдено файлов: 1
1 -===- C:\LOSSLESS\Various - The Best Disco... Ever! (2007) 4CD\CD1\Various - The Best Disco...Ever! CD1.flac
Извлечение успешно выполнено
Заключение: этот трек - CDDA с вероятностью 100%
Временный файл удалён.
Завершено: четверг, 13. 11. 2008. - 17:12.45 (Время операции: 0:06.58)
01. Kool & The Gang - Get Down On It (3:29)
02. Gibson Brothers - Cuba (3:53)
03. Michael Zager - Let's All Chant (3:02)
04. Rose Royce - Car Wash (3:15)
05. Candi Staton - Young Hearts Run Free (3:49)
06. Tavares - Heaven Must Be Missing An Angel (3:28)
07. The Trammps - Disco Inferno (3:14)
08. Dan Hartman - Instant Replay (3:25)
09. Ottawan - D.I.S.C.O. (3:44)
10. Chic - Le Freak (3:32)
11. Labelle - Lady Marmalade (3:55)
12. Maze feat. Frankie Beverly - Joy And Pain (Live In New Orleans) (4:52)
13. Amii Stewart - Knock On Wood (4:02)
14. Patrice Rushen - Forgets Me Nots (4:03)
15. A Taste Of Honey - Boogie Oogie Oogie (3:36)
16. Jimmy Bo Horne - Spank (5:30)
17. Carl Douglas - Kung-Fu Fighting (3:12)
18. Chaka Khan - Ain't Nobody (4:43)
19. Anita Ward - Ring My Bell (3:32)

Отчёт EAC
Exact Audio Copy V0.99 prebeta 3 from 28. July 2007
EAC extraction logfile from 4. October 2007, 6:51
Various / The Best Disco...Ever! CD2
Used drive : HL-DT-STDVDRAM GSA-4163B Adapter: 3 ID: 1
Read mode : Secure
Utilize accurate stream : Yes
Defeat audio cache : Yes
Make use of C2 pointers : No
Read offset correction : 667
Overread into Lead-In and Lead-Out : No
Fill up missing offset samples with silence : Yes
Delete leading and trailing silent blocks : No
Null samples used in CRC calculations : Yes
Used interface : Native Win32 interface for Win NT & 2000
Used output format : Internal WAV Routines
Sample format : 44.100 Hz; 16 Bit; Stereo
TOC of the extracted CD
Track | Start | Length | Start sector | End sector
---------------------------------------------------------
1 | 0:00.00 | 3:29.25 | 0 | 15699
2 | 3:29.25 | 3:53.12 | 15700 | 33186
3 | 7:22.37 | 3:02.13 | 33187 | 46849
4 | 10:24.50 | 3:15.06 | 46850 | 61480
5 | 13:39.56 | 3:48.50 | 61481 | 78630
6 | 17:28.31 | 3:27.42 | 78631 | 94197
7 | 20:55.73 | 3:14.36 | 94198 | 108783
8 | 24:10.34 | 3:25.16 | 108784 | 124174
9 | 27:35.50 | 3:44.01 | 124175 | 140975
10 | 31:19.51 | 3:32.12 | 140976 | 156887
11 | 34:51.63 | 3:54.44 | 156888 | 174481
12 | 38:46.32 | 4:51.47 | 174482 | 196353
13 | 43:38.04 | 4:01.58 | 196354 | 214486
14 | 47:39.62 | 4:02.43 | 214487 | 232679
15 | 51:42.30 | 3:36.13 | 232680 | 248892
16 | 55:18.43 | 5:30.18 | 248893 | 273660
17 | 60:48.61 | 3:11.39 | 273661 | 288024
18 | 64:00.25 | 4:42.52 | 288025 | 309226
19 | 68:43.02 | 3:32.15 | 309227 | 325141
Range status and errors
Selected range
Filename E:\Various - The Best Disco...Ever! CD2.wav
Peak level 98.9 %
Range quality 100.0 %
Test CRC 99AF1450
Copy CRC 99AF1450
Copy OK
No errors occurred
End of status report

Отчёт Audiochecker
AUDIOCHECKER v2.0 beta (build 457) - by Dester - [email protected]
~~~~~~~~~~~~~~~~~~~~~~~~~~~~~~~~~~
Начато: четверг, 13. 11. 2008. - 17:14.17
Найдено файлов: 1
1 -===- C:\LOSSLESS\Various - The Best Disco... Ever! (2007) 4CD\CD2\Various - The Best Disco...Ever! CD2.flac
Извлечение успешно выполнено
Заключение: этот трек - CDDA с вероятностью 100%
Временный файл удалён.
Завершено: четверг, 13. 11. 2008. - 17:21.52 (Время операции: 0:07.34)
Exact Audio Copy V0.99 prebeta 3 from 28. July 2007
EAC extraction logfile from 4. October 2007, 6:51
Various / The Best Disco...Ever! CD2
Used drive : HL-DT-STDVDRAM GSA-4163B Adapter: 3 ID: 1
Read mode : Secure
Utilize accurate stream : Yes
Defeat audio cache : Yes
Make use of C2 pointers : No
Read offset correction : 667
Overread into Lead-In and Lead-Out : No
Fill up missing offset samples with silence : Yes
Delete leading and trailing silent blocks : No
Null samples used in CRC calculations : Yes
Used interface : Native Win32 interface for Win NT & 2000
Used output format : Internal WAV Routines
Sample format : 44.100 Hz; 16 Bit; Stereo
TOC of the extracted CD
Track | Start | Length | Start sector | End sector
---------------------------------------------------------
1 | 0:00.00 | 3:29.25 | 0 | 15699
2 | 3:29.25 | 3:53.12 | 15700 | 33186
3 | 7:22.37 | 3:02.13 | 33187 | 46849
4 | 10:24.50 | 3:15.06 | 46850 | 61480
5 | 13:39.56 | 3:48.50 | 61481 | 78630
6 | 17:28.31 | 3:27.42 | 78631 | 94197
7 | 20:55.73 | 3:14.36 | 94198 | 108783
8 | 24:10.34 | 3:25.16 | 108784 | 124174
9 | 27:35.50 | 3:44.01 | 124175 | 140975
10 | 31:19.51 | 3:32.12 | 140976 | 156887
11 | 34:51.63 | 3:54.44 | 156888 | 174481
12 | 38:46.32 | 4:51.47 | 174482 | 196353
13 | 43:38.04 | 4:01.58 | 196354 | 214486
14 | 47:39.62 | 4:02.43 | 214487 | 232679
15 | 51:42.30 | 3:36.13 | 232680 | 248892
16 | 55:18.43 | 5:30.18 | 248893 | 273660
17 | 60:48.61 | 3:11.39 | 273661 | 288024
18 | 64:00.25 | 4:42.52 | 288025 | 309226
19 | 68:43.02 | 3:32.15 | 309227 | 325141
Range status and errors
Selected range
Filename E:\Various - The Best Disco...Ever! CD2.wav
Peak level 98.9 %
Range quality 100.0 %
Test CRC 99AF1450
Copy CRC 99AF1450
Copy OK
No errors occurred
End of status report
AUDIOCHECKER v2.0 beta (build 457) - by Dester - [email protected]
~~~~~~~~~~~~~~~~~~~~~~~~~~~~~~~~~~
Начато: четверг, 13. 11. 2008. - 17:14.17
Найдено файлов: 1
1 -===- C:\LOSSLESS\Various - The Best Disco... Ever! (2007) 4CD\CD2\Various - The Best Disco...Ever! CD2.flac
Извлечение успешно выполнено
Заключение: этот трек - CDDA с вероятностью 100%
Временный файл удалён.
Завершено: четверг, 13. 11. 2008. - 17:21.52 (Время операции: 0:07.34)
01. Bananarama - Venus (3:37)
02. Boney M - Daddy Cool (3:27)
03. B3 - Nightfever (3:41)
04. Murray Head - One Night In Bangkok (3:53)
05. Army Of Lovers - Crucified (3:33)
06. Kool & The Gang - Celebration (3:40)
07. George McCrae - Rock Your Baby (3:07)
08. Blondie - Heart Of Glass (3:51)
09. Little Eva - Locomotion (2:24)
10. Belle Epoque - Black Is Black (2:52)
11. The Whispers - And The Beat Goes On (3:22)
12. Imagination - Just An Illusion (3:53)
13. Odyssey - Going Back To My Roots (3:24)
14. Soundalikes - Stayin' Alive (Tribute To The Bee Gees) (4:38)
15. Donna Summer - Hot Stuff (3:47)
16. Viola Willis - Gonna Get Along Without You Now (3:41)
17. Marvin Gaye - Got To Give It Up (4:02)

Отчёт EAC
Exact Audio Copy V0.99 prebeta 3 from 28. July 2007
EAC extraction logfile from 4. October 2007, 22:49
Various / The Best Disco...Ever! CD3
Used drive : HL-DT-STDVDRAM GSA-4163B Adapter: 3 ID: 1
Read mode : Secure
Utilize accurate stream : Yes
Defeat audio cache : Yes
Make use of C2 pointers : No
Read offset correction : 667
Overread into Lead-In and Lead-Out : No
Fill up missing offset samples with silence : Yes
Delete leading and trailing silent blocks : No
Null samples used in CRC calculations : Yes
Used interface : Native Win32 interface for Win NT & 2000
Used output format : Internal WAV Routines
Sample format : 44.100 Hz; 16 Bit; Stereo
TOC of the extracted CD
Track | Start | Length | Start sector | End sector
---------------------------------------------------------
1 | 0:00.00 | 3:36.70 | 0 | 16269
2 | 3:36.70 | 3:26.52 | 16270 | 31771
3 | 7:03.47 | 3:41.16 | 31772 | 48362
4 | 10:44.63 | 3:53.02 | 48363 | 65839
5 | 14:37.65 | 3:33.25 | 65840 | 81839
6 | 18:11.15 | 3:40.14 | 81840 | 98353
7 | 21:51.29 | 3:06.51 | 98354 | 112354
8 | 24:58.05 | 3:50.46 | 112355 | 129650
9 | 28:48.51 | 2:23.38 | 129651 | 140413
10 | 31:12.14 | 2:52.13 | 140414 | 153326
11 | 34:04.27 | 3:21.39 | 153327 | 168440
12 | 37:25.66 | 3:53.37 | 168441 | 185952
13 | 41:19.28 | 3:24.12 | 185953 | 201264
14 | 44:43.40 | 4:37.61 | 201265 | 222100
15 | 49:21.26 | 3:46.49 | 222101 | 239099
16 | 53:08.00 | 3:40.54 | 239100 | 255653
17 | 56:48.54 | 4:02.27 | 255654 | 273830
Range status and errors
Selected range
Filename E:\Various - The Best Disco...Ever! CD3.wav
Peak level 98.9 %
Range quality 99.9 %
Test CRC F92A7A53
Copy CRC F92A7A53
Copy OK
No errors occurred
End of status report

Отчёт Audiochecker
AUDIOCHECKER v2.0 beta (build 457) - by Dester - [email protected]
~~~~~~~~~~~~~~~~~~~~~~~~~~~~~~~~~~
Начато: четверг, 13. 11. 2008. - 17:24.14
Найдено файлов: 1
1 -===- C:\LOSSLESS\Various - The Best Disco... Ever! (2007) 4CD\CD3\Various - The Best Disco...Ever! CD3.flac
Извлечение успешно выполнено
Заключение: этот трек - CDDA с вероятностью 100%
Временный файл удалён.
Завершено: четверг, 13. 11. 2008. - 17:30.39 (Время операции: 0:06.25)
Exact Audio Copy V0.99 prebeta 3 from 28. July 2007
EAC extraction logfile from 4. October 2007, 22:49
Various / The Best Disco...Ever! CD3
Used drive : HL-DT-STDVDRAM GSA-4163B Adapter: 3 ID: 1
Read mode : Secure
Utilize accurate stream : Yes
Defeat audio cache : Yes
Make use of C2 pointers : No
Read offset correction : 667
Overread into Lead-In and Lead-Out : No
Fill up missing offset samples with silence : Yes
Delete leading and trailing silent blocks : No
Null samples used in CRC calculations : Yes
Used interface : Native Win32 interface for Win NT & 2000
Used output format : Internal WAV Routines
Sample format : 44.100 Hz; 16 Bit; Stereo
TOC of the extracted CD
Track | Start | Length | Start sector | End sector
---------------------------------------------------------
1 | 0:00.00 | 3:36.70 | 0 | 16269
2 | 3:36.70 | 3:26.52 | 16270 | 31771
3 | 7:03.47 | 3:41.16 | 31772 | 48362
4 | 10:44.63 | 3:53.02 | 48363 | 65839
5 | 14:37.65 | 3:33.25 | 65840 | 81839
6 | 18:11.15 | 3:40.14 | 81840 | 98353
7 | 21:51.29 | 3:06.51 | 98354 | 112354
8 | 24:58.05 | 3:50.46 | 112355 | 129650
9 | 28:48.51 | 2:23.38 | 129651 | 140413
10 | 31:12.14 | 2:52.13 | 140414 | 153326
11 | 34:04.27 | 3:21.39 | 153327 | 168440
12 | 37:25.66 | 3:53.37 | 168441 | 185952
13 | 41:19.28 | 3:24.12 | 185953 | 201264
14 | 44:43.40 | 4:37.61 | 201265 | 222100
15 | 49:21.26 | 3:46.49 | 222101 | 239099
16 | 53:08.00 | 3:40.54 | 239100 | 255653
17 | 56:48.54 | 4:02.27 | 255654 | 273830
Range status and errors
Selected range
Filename E:\Various - The Best Disco...Ever! CD3.wav
Peak level 98.9 %
Range quality 99.9 %
Test CRC F92A7A53
Copy CRC F92A7A53
Copy OK
No errors occurred
End of status report
AUDIOCHECKER v2.0 beta (build 457) - by Dester - [email protected]
~~~~~~~~~~~~~~~~~~~~~~~~~~~~~~~~~~
Начато: четверг, 13. 11. 2008. - 17:24.14
Найдено файлов: 1
1 -===- C:\LOSSLESS\Various - The Best Disco... Ever! (2007) 4CD\CD3\Various - The Best Disco...Ever! CD3.flac
Извлечение успешно выполнено
Заключение: этот трек - CDDA с вероятностью 100%
Временный файл удалён.
Завершено: четверг, 13. 11. 2008. - 17:30.39 (Время операции: 0:06.25)
01. Ryan Paris - Dolce Vita (3:53)
02. London Beat - I've Been Thinking About You (3:48)
03. MC Hammer - U Can't Touch This (4:14)
04. Haddaway - What Is Love (4:28)
05. Corona - Rhythm Of The Night (3:31)
06. Culture Beat - Mr. Vain (4:17)
07. La Bouche - Be My Lover (4:01)
08. Whigfield - Saturday Night (4:04)
09. Baltimora - Tarzan Boy (3:24)
10. Dr. Alban - It's My Life (4:01)
11. Modern Talking - You're My Heart, You're My Soul (3:50)
12. Sabrina - Boys (3:55)
13. Sandra - In The Heat Of The Night (4:58)
14. Culture Club - Karma Chameleon (4:11)
15. Kajagoogoo - Too Shy (3:44)
16. Erasure - Take A Chance On Me (3:38)
17. Soft Cell - Tainted Love (2:34)

Отчёт EAC
Exact Audio Copy V0.99 prebeta 3 from 28. July 2007
EAC extraction logfile from 4. October 2007, 23:14
Various / The Best Disco...Ever! CD4
Used drive : HL-DT-STDVDRAM GSA-4163B Adapter: 3 ID: 1
Read mode : Secure
Utilize accurate stream : Yes
Defeat audio cache : Yes
Make use of C2 pointers : No
Read offset correction : 667
Overread into Lead-In and Lead-Out : No
Fill up missing offset samples with silence : Yes
Delete leading and trailing silent blocks : No
Null samples used in CRC calculations : Yes
Used interface : Native Win32 interface for Win NT & 2000
Used output format : Internal WAV Routines
Sample format : 44.100 Hz; 16 Bit; Stereo
TOC of the extracted CD
Track | Start | Length | Start sector | End sector
---------------------------------------------------------
1 | 0:00.00 | 3:53.16 | 0 | 17490
2 | 3:53.16 | 3:47.73 | 17491 | 34588
3 | 7:41.14 | 4:13.63 | 34589 | 53626
4 | 11:55.02 | 4:27.69 | 53627 | 73720
5 | 16:22.71 | 3:31.02 | 73721 | 89547
6 | 19:53.73 | 4:16.71 | 89548 | 108818
7 | 24:10.69 | 4:01.08 | 108819 | 126901
8 | 28:12.02 | 4:04.36 | 126902 | 145237
9 | 32:16.38 | 3:23.62 | 145238 | 160524
10 | 35:40.25 | 4:00.47 | 160525 | 178571
11 | 39:40.72 | 3:49.44 | 178572 | 195790
12 | 43:30.41 | 3:55.23 | 195791 | 213438
13 | 47:25.64 | 4:57.66 | 213439 | 235779
14 | 52:23.55 | 4:11.35 | 235780 | 254639
15 | 56:35.15 | 3:43.44 | 254640 | 271408
16 | 60:18.59 | 3:37.55 | 271409 | 287738
17 | 63:56.39 | 2:34.11 | 287739 | 299299
Range status and errors
Selected range
Filename E:\Various - The Best Disco...Ever! [CD4.4].wav
Peak level 99.8 %
Range quality 100.0 %
Test CRC 4421FB27
Copy CRC 4421FB27
Copy OK
No errors occurred
End of status report

Отчёт Audiochecker
AUDIOCHECKER v2.0 beta (build 457) - by Dester - [email protected]
~~~~~~~~~~~~~~~~~~~~~~~~~~~~~~~~~~
Начато: четверг, 13. 11. 2008. - 17:32.15
Найдено файлов: 1
1 -===- C:\LOSSLESS\Various - The Best Disco... Ever! (2007) 4CD\CD4\Various - The Best Disco...Ever! CD4.flac
Извлечение успешно выполнено
Заключение: этот трек - CDDA с вероятностью 100%
Временный файл удалён.
Завершено: четверг, 13. 11. 2008. - 17:38.51 (Время операции: 0:06.36)
Exact Audio Copy V0.99 prebeta 3 from 28. July 2007
EAC extraction logfile from 4. October 2007, 23:14
Various / The Best Disco...Ever! CD4
Used drive : HL-DT-STDVDRAM GSA-4163B Adapter: 3 ID: 1
Read mode : Secure
Utilize accurate stream : Yes
Defeat audio cache : Yes
Make use of C2 pointers : No
Read offset correction : 667
Overread into Lead-In and Lead-Out : No
Fill up missing offset samples with silence : Yes
Delete leading and trailing silent blocks : No
Null samples used in CRC calculations : Yes
Used interface : Native Win32 interface for Win NT & 2000
Used output format : Internal WAV Routines
Sample format : 44.100 Hz; 16 Bit; Stereo
TOC of the extracted CD
Track | Start | Length | Start sector | End sector
---------------------------------------------------------
1 | 0:00.00 | 3:53.16 | 0 | 17490
2 | 3:53.16 | 3:47.73 | 17491 | 34588
3 | 7:41.14 | 4:13.63 | 34589 | 53626
4 | 11:55.02 | 4:27.69 | 53627 | 73720
5 | 16:22.71 | 3:31.02 | 73721 | 89547
6 | 19:53.73 | 4:16.71 | 89548 | 108818
7 | 24:10.69 | 4:01.08 | 108819 | 126901
8 | 28:12.02 | 4:04.36 | 126902 | 145237
9 | 32:16.38 | 3:23.62 | 145238 | 160524
10 | 35:40.25 | 4:00.47 | 160525 | 178571
11 | 39:40.72 | 3:49.44 | 178572 | 195790
12 | 43:30.41 | 3:55.23 | 195791 | 213438
13 | 47:25.64 | 4:57.66 | 213439 | 235779
14 | 52:23.55 | 4:11.35 | 235780 | 254639
15 | 56:35.15 | 3:43.44 | 254640 | 271408
16 | 60:18.59 | 3:37.55 | 271409 | 287738
17 | 63:56.39 | 2:34.11 | 287739 | 299299
Range status and errors
Selected range
Filename E:\Various - The Best Disco...Ever! [CD4.4].wav
Peak level 99.8 %
Range quality 100.0 %
Test CRC 4421FB27
Copy CRC 4421FB27
Copy OK
No errors occurred
End of status report
AUDIOCHECKER v2.0 beta (build 457) - by Dester - [email protected]
~~~~~~~~~~~~~~~~~~~~~~~~~~~~~~~~~~
Начато: четверг, 13. 11. 2008. - 17:32.15
Найдено файлов: 1
1 -===- C:\LOSSLESS\Various - The Best Disco... Ever! (2007) 4CD\CD4\Various - The Best Disco...Ever! CD4.flac
Извлечение успешно выполнено
Заключение: этот трек - CDDA с вероятностью 100%
Временный файл удалён.
Завершено: четверг, 13. 11. 2008. - 17:38.51 (Время операции: 0:06.36)

[1.92 GB] Скачать / Download