(Electronic, Funk,Soul, Disco) Disco Circus - Disco Circus - 1993, FLAC (image+.cue), lossless - Скачать

Жанр: Electronic, Funk,Soul, Disco
Год выпуска диска: 1993
Страна-производитель диска (релиза): USA
Издатель (лейбл): Lollipop Records, Hot Productions
Номер по каталогу: HTCD 6603
Аудио кодек: FLAC
Тип рипа: image+.cue
Битрейт аудио: lossless
Трeклист:
1. In A Gadda Da Vida/Garden Of Eden [0:07:14.37]
2. Dig It [0:06:26.10]
3. Soul Sister [0:03:50.63]
4. Over And Over [0:06:06.37]
5. Get Up And Dance [0:06:15.03]
6. The Mexican [0:05:02.55]
Этот удивительный диск является фантастическим по многим причинам. Это Munich Machine без Giorgio Moroder. Многие имена здесь ... Korduletsch, Koppers, Solera , Schwarz, Evers, Forsey, Mack и Bjoerklund.
Это первый альбом группы выпущенный 1979 году.

download, композиции, музыка, песни, lossless, torrent, бесплатно, дискография, торрент, скачать, soundtrack, высокое качество, mp3, pop-music, поп-музыка, pop, альбом, поп, cd, трек, альбом

Exact Audio Copy V0.99 prebeta 4 from 23. January 2008
EAC extraction logfile from 4. August 2008, 17:51
Disco Circus / Disco Circus
Used drive : TSSTcorpCDDVDW SH-S203B Adapter: 6 ID: 0
Read mode : Secure
Utilize accurate stream : Yes
Defeat audio cache : Yes
Make use of C2 pointers : No
Read offset correction : 6
Overread into Lead-In and Lead-Out : No
Fill up missing offset samples with silence : Yes
Delete leading and trailing silent blocks : No
Null samples used in CRC calculations : No
Used interface : Installed external ASPI interface
Used output format : User Defined Encoder
Selected bitrate : 1024 kBit/s
Quality : High
Add ID3 tag : No
Command line compressor : C:\Program Files\FLAC\flac.exe
Additional command line options : -8 -V -T "ARTIST=%a" -T "TITLE=%t" -T "ALBUM=%g" -T "DATE=%y" -T "TRACKNUMBER=%n" -T "GENRE=%m" -T "COMMENT=%e" %s -o %d
TOC of the extracted CD
Track | Start | Length | Start sector | End sector
---------------------------------------------------------
1 | 0:00.00 | 7:14.37 | 0 | 32586
2 | 7:14.37 | 6:26.10 | 32587 | 61546
3 | 13:40.47 | 3:50.63 | 61547 | 78859
4 | 17:31.35 | 6:06.37 | 78860 | 106346
5 | 23:37.72 | 6:15.03 | 106347 | 134474
6 | 29:53.00 | 5:02.55 | 134475 | 157179
Range status and errors
Selected range
Filename C:\uTorrent\CD\Disco Circus - Disco Circus\Disco Circus - Disco Circus.wav
Peak level 100.0 %
Range quality 100.0 %
Test CRC 69E4B9E3
Copy CRC 69E4B9E3
Copy OK
No errors occurred
AccurateRip summary
Track 1 not present in database
Track 2 not present in database
Track 3 not present in database
Track 4 not present in database
Track 5 not present in database
Track 6 not present in database
None of the tracks are present in the AccurateRip database
End of status report

[227.4 MB] Скачать / Download