(Euro-Disco) Boys Next Door - I Will Follow You - 2008, FLAC (image+.cue), lossless - Скачать

Жанр:Euro-Disco
Год выпуска диска:2008
Производитель диска:Russia
Аудио кодек:FLAC
Тип рипа:image+.cue
Битрейт аудио:lossless
Продолжительность:48:19
Трэклист:
01. I Will Follow You (12'' Version) 4:48
02. Jenny (Disco Mix) 3:54
03. Lady Of The Night (Radio Version) 3:40
04. Louisa 3:48
05. Stop Watch Killer (Extended Version) 6:05
06. Try This For Size 3:13
07. Lady Of The Night (The Night Affair Mix) 5:04
08. Stop Watch Killer (DJ Version) 5:50
09. I Will Follow Yoy (7'' Version) 4:10
10. Jenny (Radio Mix) 4:13
11. Flic Flac In Die Nacht 3:34

Доп.информация:
Абсолютно все рипы сделаны с оригинальных CD из моей коллекции !!!
Полные сканы обложек и дисков прилагаются (600dpi, PNG) !!!

скачать, cd, download, композиции, трек, альбом, pop, lossless, soundtrack, дискография, высокое качество, альбом, mp3, поп, pop-music, torrent, музыка, поп-музыка, торрент, бесплатно, песни

Данный релиз никакого отношения к изданиям ESonCD не имеет !!!!!
http://спам.html
Back
Отчет EAC
Exact Audio Copy V0.99 prebeta 5 from 4. May 2009
Отчёт EAC об извлечении, выполненном 28. ноября 2009, 10:50
Boys Next Door / I Will Follow You
Дисковод: Optiarc DVD RW AD-5200A Adapter: 0 ID: 0
Режим чтения : Достоверность
Использование точного потока : Да
Отключение кэша аудио : Да
Использование указателей C2 : Нет
Коррекция смещения при чтении : 48
Способность читать области Lead-in и Lead-out : Нет
Заполнение пропущенных сэмплов тишиной : Да
Удаление блоков с тишиной в начале и конце : Нет
При вычислениях CRC использовались нулевые сэмплы : Да
Интерфейс : Установленный внешний ASPI-интерфейс
Выходной формат : Внутренние WAV-операции
Формат сэмплов : 44.100 Гц; 16 бит; стерео
TOC извлечённого CD
Трек | Старт | Длительность | Начальный сектор | Конечный сектор
---------------------------------------------------------------------
1 | 0:00.00 | 4:48.36 | 0 | 21635
2 | 4:48.36 | 3:54.25 | 21636 | 39210
3 | 8:42.61 | 3:39.53 | 39211 | 55688
4 | 12:22.39 | 3:47.60 | 55689 | 72773
5 | 16:10.24 | 6:04.69 | 72774 | 100142
6 | 22:15.18 | 3:13.12 | 100143 | 114629
7 | 25:28.30 | 5:03.65 | 114630 | 137419
8 | 30:32.20 | 5:49.59 | 137420 | 163653
9 | 36:22.04 | 4:09.63 | 163654 | 182391
10 | 40:31.67 | 4:13.34 | 182392 | 201400
11 | 44:45.26 | 3:34.27 | 201401 | 217477
Характеристики диапазона извлечения и сообщения об ошибках
Выбранный диапазон
Имя файла I:\Boys Next Door - I Will Follow You\Boys Next Door - I Will Follow You.wav
Пиковый уровень 96.1 %
Качество диапазона 100.0 %
CRC теста 8BF6BBF7
CRC копии 8BF6BBF7
Копирование... OK
Ошибок не произошло
AccurateRip: сводка
Трек 1 точное извлечение (доверие 1) [BA9D4FC3]
Трек 2 точное извлечение (доверие 1) [09ACDCFE]
Трек 3 точное извлечение (доверие 1) [6902812B]
Трек 4 точное извлечение (доверие 1) [CE8EF8FB]
Трек 5 точное извлечение (доверие 1) [926AF638]
Трек 6 точное извлечение (доверие 1) [0AA8F3D9]
Трек 7 точное извлечение (доверие 1) [5FD626D6]
Трек 8 точное извлечение (доверие 1) [B43EDF1C]
Трек 9 точное извлечение (доверие 1) [58A5C216]
Трек 10 точное извлечение (доверие 1) [0DE8B36E]
Трек 11 точное извлечение (доверие 1) [CF1DA148]
Все треки извлечены точно
Конец отчёта
Exact Audio Copy V0.99 prebeta 5 from 4. May 2009
Отчёт EAC об извлечении, выполненном 28. ноября 2009, 10:50
Boys Next Door / I Will Follow You
Дисковод: Optiarc DVD RW AD-5200A Adapter: 0 ID: 0
Режим чтения : Достоверность
Использование точного потока : Да
Отключение кэша аудио : Да
Использование указателей C2 : Нет
Коррекция смещения при чтении : 48
Способность читать области Lead-in и Lead-out : Нет
Заполнение пропущенных сэмплов тишиной : Да
Удаление блоков с тишиной в начале и конце : Нет
При вычислениях CRC использовались нулевые сэмплы : Да
Интерфейс : Установленный внешний ASPI-интерфейс
Выходной формат : Внутренние WAV-операции
Формат сэмплов : 44.100 Гц; 16 бит; стерео
TOC извлечённого CD
Трек | Старт | Длительность | Начальный сектор | Конечный сектор
---------------------------------------------------------------------
1 | 0:00.00 | 4:48.36 | 0 | 21635
2 | 4:48.36 | 3:54.25 | 21636 | 39210
3 | 8:42.61 | 3:39.53 | 39211 | 55688
4 | 12:22.39 | 3:47.60 | 55689 | 72773
5 | 16:10.24 | 6:04.69 | 72774 | 100142
6 | 22:15.18 | 3:13.12 | 100143 | 114629
7 | 25:28.30 | 5:03.65 | 114630 | 137419
8 | 30:32.20 | 5:49.59 | 137420 | 163653
9 | 36:22.04 | 4:09.63 | 163654 | 182391
10 | 40:31.67 | 4:13.34 | 182392 | 201400
11 | 44:45.26 | 3:34.27 | 201401 | 217477
Характеристики диапазона извлечения и сообщения об ошибках
Выбранный диапазон
Имя файла I:\Boys Next Door - I Will Follow You\Boys Next Door - I Will Follow You.wav
Пиковый уровень 96.1 %
Качество диапазона 100.0 %
CRC теста 8BF6BBF7
CRC копии 8BF6BBF7
Копирование... OK
Ошибок не произошло
AccurateRip: сводка
Трек 1 точное извлечение (доверие 1) [BA9D4FC3]
Трек 2 точное извлечение (доверие 1) [09ACDCFE]
Трек 3 точное извлечение (доверие 1) [6902812B]
Трек 4 точное извлечение (доверие 1) [CE8EF8FB]
Трек 5 точное извлечение (доверие 1) [926AF638]
Трек 6 точное извлечение (доверие 1) [0AA8F3D9]
Трек 7 точное извлечение (доверие 1) [5FD626D6]
Трек 8 точное извлечение (доверие 1) [B43EDF1C]
Трек 9 точное извлечение (доверие 1) [58A5C216]
Трек 10 точное извлечение (доверие 1) [0DE8B36E]
Трек 11 точное извлечение (доверие 1) [CF1DA148]
Все треки извлечены точно
Конец отчёта

[434.6 MB] Скачать / Download