(Euro-Disco) Silent Circle - № 1 - 1986, FLAC (image+.cue), lossless - Скачать

Жанр: Euro-Disco
Носитель: CD
Страна-производитель диска: Germany
Год издания: 1986
Издатель (лейбл): Blow Up
Номер по каталогу: INT 845.519
Страна группы: Germany
Аудиокодек: FLAC (*.flac)
Тип рипа: image+.cue
Битрейт аудио: lossless
Продолжительность: 39:17
Источник (релизер): Свой диск
Наличие сканов в содержимом раздачи: да
Треклист:
01. Touch In The Night [0:05:20.25]
02. Sib Dub Dua [0:03:06.42]
03. Dreams [0:04:02.10]
04. Hide Away - Man Is Comin'! [0:03:44.23]
05. Shy Girl [0:03:39.15]
06. Stop The Rain In The Night [0:03:41.42]
07. For You [0:01:33.23]
08. Give Me Time [0:03:59.32]
09. Moonlight Affair [0:03:31.10]
10. Anywhere Tonight [0:03:18.48]
11. Love Is Just A Word [0:03:21.07]

альбом, дискография, pop, lossless, mp3, cd, поп-музыка, бесплатно, музыка, песни, pop-music, download, композиции, трек, торрент, высокое качество, torrent, скачать, поп, альбом, soundtrack

 Exact Audio Copy V1.0 beta 3 from 29. August 2011
Отчёт EAC об извлечении, выполненном 3. мая 2016, 14:06
Silent Circle / No. 1
Дисковод: HL-DT-STDVD-RAM GH22NP20 Adapter: 0 ID: 0
Режим чтения : Достоверность
Использование точного потока : Да
Отключение кэша аудио : Да
Использование указателей C2 : Нет
Коррекция смещения при чтении : 102
Способность читать области Lead-in и Lead-out : Нет
Заполнение пропущенных сэмплов тишиной : Да
Удаление блоков с тишиной в начале и конце : Нет
При вычислениях CRC использовались нулевые сэмплы : Да
Интерфейс : Встроенный Win32-интерфейс для Win NT/2000
Выходной формат : Внутренние WAV-операции
Формат сэмплов : 44.100 Гц; 16 бит; стерео
TOC извлечённого CD
Трек | Старт | Длительность | Начальный сектор | Конечный сектор
---------------------------------------------------------------------
1 | 0:00.00 | 5:20.25 | 0 | 24024
2 | 5:20.25 | 3:06.42 | 24025 | 38016
3 | 8:26.67 | 4:02.10 | 38017 | 56176
4 | 12:29.02 | 3:44.23 | 56177 | 72999
5 | 16:13.25 | 3:39.15 | 73000 | 89439
6 | 19:52.40 | 3:41.42 | 89440 | 106056
7 | 23:34.07 | 1:33.23 | 106057 | 113054
8 | 25:07.30 | 3:59.32 | 113055 | 131011
9 | 29:06.62 | 3:31.10 | 131012 | 146846
10 | 32:37.72 | 3:18.48 | 146847 | 161744
11 | 35:56.45 | 3:21.07 | 161745 | 176826
Характеристики диапазона извлечения и сообщения об ошибках
Выбранный диапазон
Имя файла D:\Torrents\Silent Circle - No. 1 (1986)\Silent Circle - No. 1.wav
Пиковый уровень 100.0 %
Скорость извлечения 2.4 X
Качество диапазона 100.0 %
CRC теста 94A9AB16
CRC копии 94A9AB16
Копирование... OK
Ошибок не произошло
AccurateRip: сводка
Трек 1 : извлечено точно (доверие 2) [C5CD1479] (AR v2)
Трек 2 : извлечено точно (доверие 2) [D7683E7B] (AR v2)
Трек 3 : извлечено точно (доверие 2) [60ADA106] (AR v2)
Трек 4 : извлечено точно (доверие 2) [20A44B53] (AR v2)
Трек 5 : извлечено точно (доверие 2) [712EE0FA] (AR v2)
Трек 6 : извлечено точно (доверие 2) [63937074] (AR v2)
Трек 7 : извлечено точно (доверие 2) [80C60525] (AR v2)
Трек 8 : извлечено точно (доверие 2) [50269978] (AR v2)
Трек 9 : извлечено точно (доверие 2) [D8BFF823] (AR v2)
Трек 10 : извлечено точно (доверие 2) [826493C3] (AR v2)
Трек 11 : извлечено точно (доверие 2) [F71FF612] (AR v2)
Все треки извлечены точно
Конец отчёта
---- CUETools DB Plugin V2.1.3
[CTDB TOCID: AnyNOJH2PTLcTwCdeXrb_8XBCv0-] found, Submit result: AnyNOJH2PTLcTwCdeXrb_8XBCv0- has been confirmed
[b8def54a] (7/7) Accurately ripped
==== Контрольная сумма отчёта 99580348DA2C54804E36FACE1636C6984093F790CBAF2917E3E1B55CB8BFB11F ====
 REM GENRE Electronic
REM DATE 1986
REM DISCID 9E09350B
REM COMMENT "ExactAudioCopy v1.0b3"
PERFORMER "Silent Circle"
TITLE "No. 1"
FILE "Silent Circle - No. 1.flac" WAVE
TRACK 01 AUDIO
TITLE "Touch In The Night"
PERFORMER "Silent Circle"
INDEX 01 00:00:00
TRACK 02 AUDIO
TITLE "Sib Dub Dua"
PERFORMER "Silent Circle"
INDEX 00 05:17:55
INDEX 01 05:20:25
TRACK 03 AUDIO
TITLE "Dreams"
PERFORMER "Silent Circle"
INDEX 00 08:24:55
INDEX 01 08:26:67
TRACK 04 AUDIO
TITLE "Hide Away - Man Is Comin'!"
PERFORMER "Silent Circle"
INDEX 00 12:27:69
INDEX 01 12:29:02
TRACK 05 AUDIO
TITLE "Shy Girl"
PERFORMER "Silent Circle"
INDEX 00 16:11:63
INDEX 01 16:13:25
TRACK 06 AUDIO
TITLE "Stop The Rain In The Night"
PERFORMER "Silent Circle"
INDEX 00 19:50:60
INDEX 01 19:52:40
TRACK 07 AUDIO
TITLE "For You"
PERFORMER "Silent Circle"
INDEX 00 23:32:46
INDEX 01 23:34:07
TRACK 08 AUDIO
TITLE "Give Me Time"
PERFORMER "Silent Circle"
INDEX 01 25:07:30
TRACK 09 AUDIO
TITLE "Moonlight Affair"
PERFORMER "Silent Circle"
INDEX 00 29:04:37
INDEX 01 29:06:62
TRACK 10 AUDIO
TITLE "Anywhere Tonight"
PERFORMER "Silent Circle"
INDEX 00 32:36:22
INDEX 01 32:37:72
TRACK 11 AUDIO
TITLE "Love Is Just A Word"
PERFORMER "Silent Circle"
INDEX 00 35:55:57
INDEX 01 35:56:45

[310.4 MB] Скачать / Download