(Euro-Disco/EuroPop) T.M.-Joy - Passion & Pain - 2007, FLAC (image + .cue), lossless - Скачать

T.M.-Joy - Passion & PainСтрана: Germany
Жанр: EuroDisco/EuroPop
Год выпуска: 2007
Формат: FLAC (image + .cue)
Битрейт аудио: lossless
Продолжительность: 1:13:30
Треклист:

01. Lost In The Dark 03:10
02. Don't Break By Heart 03:39
03. One Night's Not Enough 03:56
04. Stand Up And Fight 03:47
05. Never Let You Go 03:35
06. Wait By The Radio (Short Album Cut) 02:59
07. Want To Be Your Lover 03:34
08. Call Me 03:17
09. Will I Ever See You Again 03:47
10. 4 Our Love (Worship Mix) 03:50
11. Stay Forever Mine 03:54
12. Be There (2 In One Mix) 04:02
13. I Will Always Love You 03:28
14. I Don't Wanna 03:40
15. This Love - So Lonely 04:05
16. All The Whispers - The Second Mission 04:34
17. Heart To Heart [Weatherstorm Recovermix '07] 04:35
18. Never Let You Go [Weatherstorm Greyfall Remix] 04:19
19. I Will Always Love You [Dick's Push The Red Button Mix] 05:09

торрент, дискография, песни, трек, альбом, cd, поп, soundtrack, альбом, поп-музыка, pop-music, pop, lossless, музыка, бесплатно, высокое качество, композиции, torrent, скачать, mp3, download

 Exact Audio Copy V0.99 prebeta 4 from 23. January 2008
Отчёт EAC об извлечении, выполненном 28. мая 2008, 4:45
T.M.-Joy / Passion & Pain
Дисковод: PLEXTOR DVDR PX-810UF Adapter: 2 ID: 0
Режим чтения : Достоверность
Использование точного потока : Да
Отключение кэша аудио : Да
Использование указателей C2 : Нет
Коррекция смещения при чтении : 667
Способность читать области Lead-in и Lead-out : Нет
Заполнение пропущенных сэмплов тишиной : Да
Удаление блоков с тишиной в начале и конце : Нет
При вычислениях CRC использовались нулевые сэмплы : Нет
Интерфейс : Встроенный Win32-интерфейс для Win NT/2000
Выходной формат : Внутренние WAV-операции
Формат сэмплов : 44.100 Гц; 16 бит; стерео
TOC извлечённого CD
Трек | Старт | Длительность | Начальный сектор | Конечный сектор
---------------------------------------------------------------------
1 | 0:00.00 | 3:10.73 | 0 | 14322
2 | 3:10.73 | 3:39.19 | 14323 | 30766
3 | 6:50.17 | 3:56.41 | 30767 | 48507
4 | 10:46.58 | 3:47.72 | 48508 | 65604
5 | 14:34.55 | 3:35.10 | 65605 | 81739
6 | 18:09.65 | 2:59.58 | 81740 | 95222
7 | 21:09.48 | 3:34.30 | 95223 | 111302
8 | 24:44.03 | 3:17.68 | 111303 | 126145
9 | 28:01.71 | 3:47.61 | 126146 | 143231
10 | 31:49.57 | 3:50.66 | 143232 | 160547
11 | 35:40.48 | 3:54.27 | 160548 | 178124
12 | 39:35.00 | 4:02.05 | 178125 | 196279
13 | 43:37.05 | 3:28.13 | 196280 | 211892
14 | 47:05.18 | 3:40.71 | 211893 | 228463
15 | 50:46.14 | 4:05.13 | 228464 | 246851
16 | 54:51.27 | 4:34.37 | 246852 | 267438
17 | 59:25.64 | 4:35.48 | 267439 | 288111
18 | 64:01.37 | 4:19.24 | 288112 | 307560
19 | 68:20.61 | 5:09.52 | 307561 | 330787
Характеристики диапазона извлечения и сообщения об ошибках
Выбранный диапазон
Имя файла Z:\Temp\T.M.-Joy - Passion & Pain.wav
Пиковый уровень 98.8 %
Качество диапазона 99.9 %
CRC теста CE5683A4
CRC копии CE5683A4
Копирование... OK
Ошибок не произошло
AccurateRip: сводка
Трек 1 нет в базе данных
Трек 2 нет в базе данных
Трек 3 нет в базе данных
Трек 4 нет в базе данных
Трек 5 нет в базе данных
Трек 6 нет в базе данных
Трек 7 нет в базе данных
Трек 8 нет в базе данных
Трек 9 нет в базе данных
Трек 10 нет в базе данных
Трек 11 нет в базе данных
Трек 12 нет в базе данных
Трек 13 нет в базе данных
Трек 14 нет в базе данных
Трек 15 нет в базе данных
Трек 16 нет в базе данных
Трек 17 нет в базе данных
Трек 18 нет в базе данных
Трек 19 нет в базе данных
Ни одного трека нет в базе AccurateRip
Конец отчёта

[572.8 MB] Скачать / Download