(Euro-Disco) Joy B. - Touch By Touch ('98 Version) (CDM) - 1998, FLAC (image+.cue), lossless - Скачать

Жанр: EuroDisco
Год выпуска диска: 1998
Производитель диска: Germany
Аудио кодек: FLAC
Тип рипа: image+.cue
Битрейт аудио: lossless
Продолжительность: 17:54
Источник: Собственный рип
Discogs
Треклист:

01.Touch By Touch (Radio Version) (3:41)
02.Touch By Touch (Dance Version) (3:42)
03.Touch By Touch (Karaoke Version) (3:41)
04.Touch By Touch (Instrumental) (3:42)
05.All I Have To Do Is Dream (3:08)

mp3, torrent, поп-музыка, альбом, бесплатно, lossless, песни, трек, высокое качество, cd, дискография, поп, торрент, альбом, музыка, скачать, pop, soundtrack, композиции, pop-music, download

 Exact Audio Copy V0.99 prebeta 5 from 4. May 2009
Отчёт EAC об извлечении, выполненном 27. августа 2010, 11:02
Joy B. / Touch By Touch
Дисковод: ASUS DRW-2014S1T Adapter: 0 ID: 4
Режим чтения : Достоверность
Использование точного потока : Да
Отключение кэша аудио : Да
Использование указателей C2 : Нет
Коррекция смещения при чтении : 6
Способность читать области Lead-in и Lead-out : Нет
Заполнение пропущенных сэмплов тишиной : Да
Удаление блоков с тишиной в начале и конце : Нет
При вычислениях CRC использовались нулевые сэмплы : Да
Интерфейс : Установленный внешний ASPI-интерфейс
Выходной формат : Внутренние WAV-операции
Формат сэмплов : 44.100 Гц; 16 бит; стерео
TOC извлечённого CD
Трек | Старт | Длительность | Начальный сектор | Конечный сектор
---------------------------------------------------------------------
1 | 0:00.00 | 3:41.34 | 0 | 16608
2 | 3:41.34 | 3:42.19 | 16609 | 33277
3 | 7:23.53 | 3:40.43 | 33278 | 49820
4 | 11:04.21 | 3:42.20 | 49821 | 66490
5 | 14:46.41 | 3:07.52 | 66491 | 80567
Характеристики диапазона извлечения и сообщения об ошибках
Выбранный диапазон
Имя файла Z:\Temp\Joy B. - Touch By Touch.wav
Пиковый уровень 100.0 %
Качество диапазона 99.9 %
CRC теста 89210755
CRC копии 89210755
Копирование... OK
Ошибок не произошло
AccurateRip: сводка
Трек 1 нет в базе данных
Трек 2 нет в базе данных
Трек 3 нет в базе данных
Трек 4 нет в базе данных
Трек 5 нет в базе данных
Ни одного трека нет в базе AccurateRip
Конец отчёта

[203 MB] Скачать / Download