(Euro-Disco) Modern Talking - Golden Collection - 2000, APE (image+.cue), lossless - Скачать

Жанр: Pop
Год выпуска диска: 2000
Производитель диска: Германия
Аудио кодек: APE
Тип рипа: image+.cue
Битрейт аудио: lossless
Продолжительность: 2:39:18
Трэклист:
skrinshots
Не забывайте нажимать на кнопку '' сказать спасибо !!! '' и раздача не канет в лету !!!

трек, soundtrack, музыка, lossless, pop-music, дискография, бесплатно, cd, скачать, высокое качество, mp3, песни, торрент, композиции, альбом, поп-музыка, pop, поп, альбом, torrent, download

01:19:29
01 - You're My Heart, You're My Soul
02 - China In Her Eyes
03 - Cheri Cheri Lady
04 - You Are Not Alone
05 - Sexy Sexy Lover
06 - Cosmic Girl
07 - I Can't Give You More
08 - It's Your Smile
09 - Brother Louie
10 - Taxi Girl
11 - In 100 Years
12 - Lady Lai
13 - After Your Love Is Gone
14 - I'll Never Give You Up
15 - Rouge Et Noir
16 - We Take The Chance - Modern Talking
17 - Give Me Peace On Earth
18 - Love Is Forever
19 - Angie's Heart
20 - It Hurts So Good
21 - Fly To The Moon
22 - I Will Follow You
01:19:49
01 - No Face No Name No Number
02 - Geronimo's Cadillac (New Version)
03 - I'll Never Fall In Love Again
04 - Atlantis Is Calling (New Version)
05 - Part Time Lover
06 - You Can Win If You Want (New Version)
07 - Don't Take Away My Heart
08 - Can't Get Enough
09 - Avec Toi
10 - Anything Is Possible (New Hit 2000)
11 - China In Her Eyes (Album Version)
12 - Jet Airliner (New Version)
13 - My Lonely Girl
14 - Don't Play With My Heart (New Hit 2000)
15 - Sexy, Sexy Lover (Featuring Eric Singlton)
16 - Don't Let Me Go
17 - I'm Not Guilty
18 - Intro Eric Singleton Presents
19 - Cheri Cheri Lady
20 - Brother Louie
21 - You Can Win If You Want
22 - Do You Wanna
23 - Eric Singleton Mix
24 - Shilla
25 - Atlantis Is Calling
26 - Heart And Tears
27 - Heaven Will Know
28 - Outro Eric Singleton
Exact Audio Copy V0.99 prebeta 5 from 4. May 2009
Отчёт EAC об извлечении, выполненном 5. ноября 2009, 13:16
Modern Talking / BEST Disc 1 United Music Artist Group, Inc.
Дисковод: HL-DT-STDVD-ROM GDR8161B Adapter: 1 ID: 0
Режим чтения : Достоверность
Использование точного потока : Да
Отключение кэша аудио : Да
Использование указателей C2 : Нет
Коррекция смещения при чтении : 102
Способность читать области Lead-in и Lead-out : Нет
Заполнение пропущенных сэмплов тишиной : Да
Удаление блоков с тишиной в начале и конце : Нет
При вычислениях CRC использовались нулевые сэмплы : Да
Интерфейс : Встроенный Win32-интерфейс для Win NT/2000
Выходной формат : Внутренние WAV-операции
Формат сэмплов : 44.100 Гц; 16 бит; стерео
TOC извлечённого CD
Трек | Старт | Длительность | Начальный сектор | Конечный сектор
---------------------------------------------------------------------
1 | 0:00.00 | 3:17.25 | 0 | 14799
2 | 3:17.25 | 3:10.21 | 14800 | 29070
3 | 6:27.46 | 3:00.13 | 29071 | 42583
4 | 9:27.59 | 3:24.39 | 42584 | 57922
5 | 12:52.23 | 3:32.16 | 57923 | 73838
6 | 16:24.39 | 3:41.35 | 73839 | 90448
7 | 20:05.74 | 3:40.59 | 90449 | 107007
8 | 23:46.58 | 3:32.04 | 107008 | 122911
9 | 27:18.62 | 3:23.25 | 122912 | 138161
10 | 30:42.12 | 3:09.39 | 138162 | 152375
11 | 33:51.51 | 3:57.53 | 152376 | 170203
12 | 37:49.29 | 5:04.71 | 170204 | 193074
13 | 42:54.25 | 3:42.48 | 193075 | 209772
14 | 46:36.73 | 3:24.54 | 209773 | 225126
15 | 50:01.52 | 3:13.37 | 225127 | 239638
16 | 53:15.14 | 4:05.65 | 239639 | 258078
17 | 57:21.04 | 4:24.06 | 258079 | 277884
18 | 61:45.10 | 3:25.28 | 277885 | 293287
19 | 65:10.38 | 3:31.10 | 293288 | 309122
20 | 68:41.48 | 3:20.66 | 309123 | 324188
21 | 72:02.39 | 3:38.06 | 324189 | 340544
22 | 75:40.45 | 3:59.51 | 340545 | 358520
Характеристики диапазона извлечения и сообщения об ошибках
Выбранный диапазон
Имя файла C:\Documents and Settings\ТЕЛЕГИД\Рабочий стол\Modern Talking - Golden Collection (CD1) [lossless]\Modern Talking - BEST Disc 1 United Music Artist Group, Inc..wav
Пиковый уровень 100.0 %
Качество диапазона 99.9 %
CRC теста E38483C2
CRC копии E38483C2
Копирование... OK
Ошибок не произошло
AccurateRip: сводка
Трек 1 нет в базе данных
Трек 2 нет в базе данных
Трек 3 нет в базе данных
Трек 4 нет в базе данных
Трек 5 нет в базе данных
Трек 6 нет в базе данных
Трек 7 нет в базе данных
Трек 8 нет в базе данных
Трек 9 нет в базе данных
Трек 10 нет в базе данных
Трек 11 нет в базе данных
Трек 12 нет в базе данных
Трек 13 нет в базе данных
Трек 14 нет в базе данных
Трек 15 нет в базе данных
Трек 16 нет в базе данных
Трек 17 нет в базе данных
Трек 18 нет в базе данных
Трек 19 нет в базе данных
Трек 20 нет в базе данных
Трек 21 нет в базе данных
Трек 22 нет в базе данных
Ни одного трека нет в базе AccurateRip
Конец отчёта
Exact Audio Copy V0.99 prebeta 5 from 4. May 2009
Отчёт EAC об извлечении, выполненном 5. ноября 2009, 14:29
Modern Talking / BEST Disc 2 United Music Artist Group, Inc.
Дисковод: HL-DT-STDVD-ROM GDR8161B Adapter: 1 ID: 0
Режим чтения : Достоверность
Использование точного потока : Да
Отключение кэша аудио : Да
Использование указателей C2 : Нет
Коррекция смещения при чтении : 102
Способность читать области Lead-in и Lead-out : Нет
Заполнение пропущенных сэмплов тишиной : Да
Удаление блоков с тишиной в начале и конце : Нет
При вычислениях CRC использовались нулевые сэмплы : Да
Интерфейс : Встроенный Win32-интерфейс для Win NT/2000
Выходной формат : Внутренние WAV-операции
Формат сэмплов : 44.100 Гц; 16 бит; стерео
TOC извлечённого CD
Трек | Старт | Длительность | Начальный сектор | Конечный сектор
---------------------------------------------------------------------
1 | 0:00.00 | 3:58.37 | 0 | 17886
2 | 3:58.37 | 3:06.46 | 17887 | 31882
3 | 7:05.08 | 4:36.18 | 31883 | 52600
4 | 11:41.26 | 3:21.03 | 52601 | 67678
5 | 15:02.29 | 3:08.63 | 67679 | 81841
6 | 18:11.17 | 3:33.59 | 81842 | 97875
7 | 21:45.01 | 3:35.10 | 97876 | 114010
8 | 25:20.11 | 3:33.45 | 114011 | 130030
9 | 28:53.56 | 3:50.05 | 130031 | 147285
10 | 32:43.61 | 3:35.07 | 147286 | 163417
11 | 36:18.68 | 4:20.04 | 163418 | 182921
12 | 40:38.72 | 3:57.66 | 182922 | 200762
13 | 44:36.63 | 3:40.53 | 200763 | 217315
14 | 48:17.41 | 3:25.43 | 217316 | 232733
15 | 51:43.09 | 4:57.36 | 232734 | 255044
16 | 56:40.45 | 3:19.34 | 255045 | 270003
17 | 60:00.04 | 3:37.68 | 270004 | 286346
18 | 63:37.72 | 0:56.44 | 286347 | 290590
19 | 64:34.41 | 1:39.47 | 290591 | 298062
20 | 66:14.13 | 1:21.19 | 298063 | 304156
21 | 67:35.32 | 1:45.49 | 304157 | 312080
22 | 69:21.06 | 1:14.01 | 312081 | 317631
23 | 70:35.07 | 1:13.38 | 317632 | 323144
24 | 71:48.45 | 1:24.38 | 323145 | 329482
25 | 73:13.08 | 1:23.55 | 329483 | 335762
26 | 74:36.63 | 1:52.45 | 335763 | 344207
27 | 76:29.33 | 1:38.18 | 344208 | 351575
28 | 78:07.51 | 1:42.73 | 351576 | 359298
Характеристики диапазона извлечения и сообщения об ошибках
Выбранный диапазон
Имя файла C:\Documents and Settings\ТЕЛЕГИД\Рабочий стол\Modern Talking - Golden Collection (CD2) [lossless]\Modern Talking - BEST Disc 2 United Music Artist Group, Inc..wav
Пиковый уровень 100.0 %
Качество диапазона 99.9 %
CRC теста 5F3FF6E0
CRC копии 5F3FF6E0
Копирование... OK
Ошибок не произошло
AccurateRip: сводка
Трек 1 нет в базе данных
Трек 2 нет в базе данных
Трек 3 нет в базе данных
Трек 4 нет в базе данных
Трек 5 нет в базе данных
Трек 6 нет в базе данных
Трек 7 нет в базе данных
Трек 8 нет в базе данных
Трек 9 нет в базе данных
Трек 10 нет в базе данных
Трек 11 нет в базе данных
Трек 12 нет в базе данных
Трек 13 нет в базе данных
Трек 14 нет в базе данных
Трек 15 нет в базе данных
Трек 16 нет в базе данных
Трек 17 нет в базе данных
Трек 18 нет в базе данных
Трек 19 нет в базе данных
Трек 20 нет в базе данных
Трек 21 нет в базе данных
Трек 22 нет в базе данных
Трек 23 нет в базе данных
Трек 24 нет в базе данных
Трек 25 нет в базе данных
Трек 26 нет в базе данных
Трек 27 нет в базе данных
Трек 28 нет в базе данных
Ни одного трека нет в базе AccurateRip
Конец отчёта
AUDIOCHECKER v2.0 beta (build 457) - by Dester - [email protected]
~~~~~~~~~~~~~~~~~~~~~~~~~~~~~~~~~~
Начато: четверг, 05. 11. 2009. - 16:45.29
Найдено файлов: 1
1 -===- C:\Documents and Settings\ТЕЛЕГИД\Рабочий стол\Modern Talking\Modern Talking - Golden Collection (CD1) [lossless]\Modern Talking - BEST Disc 1 United Music Artist Group, Inc..ape
Извлечение успешно выполнено
Заключение: этот трек - CDDA с вероятностью 100%
Временный файл удалён.
Завершено: четверг, 05. 11. 2009. - 17:04.43 (Время операции: 0:19.14)
AUDIOCHECKER v2.0 beta (build 457) - by Dester - [email protected]
~~~~~~~~~~~~~~~~~~~~~~~~~~~~~~~~~~
Начато: четверг, 05. 11. 2009. - 17:15.10
Найдено файлов: 1
1 -===- C:\Documents and Settings\ТЕЛЕГИД\Рабочий стол\Modern Talking\Modern Talking - Golden Collection (CD2) [lossless]\Modern Talking - BEST Disc 2 United Music Artist Group, Inc..ape
Извлечение успешно выполнено
Заключение: этот трек - CDDA с вероятностью 100%
Временный файл удалён.
Завершено: четверг, 05. 11. 2009. - 17:35.31 (Время операции: 0:20.21)

[1.1 GB] Скачать / Download