(Euro-Disco, Synht-Pop) Silent Circle - Best Of Silent Circle - 1991, FLAC (image+.cue), lossless - Скачать

Жанр: Euro-Disco,Synht-Pop
Страна-производитель диска: Hong Kong
Год издания: 1991
Издатель (лейбл): Blow Records
Номер по каталогу: 80095-2
Страна: Germany
Аудиокодек: FLAC (*.flac)
Тип рипа: image+.cue
Битрейт аудио: lossless
Продолжительность: 01:12:31
Источник (релизер): CD
Наличие сканов в содержимом раздачи: да
Треклист:
01. Touch In The Night (5:16)
02. Stop The Rain (5:35)
03. Hide Away - Man Is Comin'! (5:05)
04. I Am Your Believer (5:42)
05. Oh, Don't Lose Your Heart Tonight (5:46)
06. Danger Danger (5:49)
07. Lose Is Just A Word (5:45)
08. Time For Love (5:07)
09. Sib Dub Dua (3:05)
10. Dreams (3:56)
11. Shy Girl (3:32)
12. For You+Give Me Time (5:32)
13. Moonlight Affair (3:30)
14. Anywhere Tonight (3:18)
15. Forget The Stranger (4:39)

альбом, cd, музыка, pop, песни, mp3, поп, download, композиции, альбом, трек, torrent, бесплатно, lossless, скачать, поп-музыка, pop-music, дискография, soundtrack, высокое качество, торрент

 Exact Audio Copy V1.0 beta 3 from 29. August 2011
Отчёт EAC об извлечении, выполненном 12. июля 2014, 14:23
Silent Circle / Best Of Silent Circle
Дисковод: Optiarc DVD RW AD-7243S Adapter: 3 ID: 1
Режим чтения : Достоверность
Использование точного потока : Да
Отключение кэша аудио : Да
Использование указателей C2 : Нет
Коррекция смещения при чтении : 48
Способность читать области Lead-in и Lead-out : Нет
Заполнение пропущенных сэмплов тишиной : Да
Удаление блоков с тишиной в начале и конце : Нет
При вычислениях CRC использовались нулевые сэмплы : Да
Интерфейс : Встроенный Win32-интерфейс для Win NT/2000
Выходной формат : Пользовательский кодировщик
Выбранный битрейт : 768 kBit/s
Качество : Высокий
Добавление ID3-тега : Нет
Утилита сжатия : C:\Program Files\Exact Audio Copy\FLAC\FLAC.EXE
Дополнительные параметры : -6 -V -T "ARTIST=%artist%" -T "TITLE=%title%" -T "ALBUM=%albumtitle%" -T "DATE=%year%" -T "TRACKNUMBER=%tracknr%" -T "GENRE=%genre%" -T "COMMENT=%comment%" -T "BAND=%albuminterpret%" -T "ALBUMARTIST=%albuminterpret%" -T "COMPOSER=%composer%" %haslyrics%--tag-from-file=LYRICS="%lyricsfile%"%haslyrics% -T "DISCNUMBER=%cdnumber%" -T "TOTALDISCS=%totalcds%" -T "TOTALTRACKS=%numtracks%" %hascover%--picture="%coverfile%"%hascover% %source% -o %dest%
TOC извлечённого CD
Трек | Старт | Длительность | Начальный сектор | Конечный сектор
---------------------------------------------------------------------
1 | 0:00.00 | 5:15.72 | 0 | 23696
2 | 5:15.72 | 5:41.48 | 23697 | 49319
3 | 10:57.45 | 5:11.32 | 49320 | 72676
4 | 16:09.02 | 5:47.40 | 72677 | 98741
5 | 21:56.42 | 5:55.05 | 98742 | 125371
6 | 27:51.47 | 5:52.63 | 125372 | 151834
7 | 33:44.35 | 5:50.45 | 151835 | 178129
8 | 39:35.05 | 5:05.57 | 178130 | 201061
9 | 44:40.62 | 3:06.50 | 201062 | 215061
10 | 47:47.37 | 4:00.68 | 215062 | 233129
11 | 51:48.30 | 3:38.60 | 233130 | 249539
12 | 55:27.15 | 5:33.02 | 249540 | 274516
13 | 61:00.17 | 3:31.08 | 274517 | 290349
14 | 64:31.25 | 3:23.70 | 290350 | 305644
15 | 67:55.20 | 4:36.17 | 305645 | 326361
Характеристики диапазона извлечения и сообщения об ошибках
Выбранный диапазон
Имя файла E:\Временная\Silent Circle - Best Of Silent Circle.wav
Пиковый уровень 100.0 %
Скорость извлечения 4.4 X
Качество диапазона 99.9 %
CRC теста 4359C79F
CRC копии 4359C79F
Копирование... OK
Ошибок не произошло
AccurateRip: сводка
Трек 1 отсутствует в базе данных
Трек 2 отсутствует в базе данных
Трек 3 отсутствует в базе данных
Трек 4 отсутствует в базе данных
Трек 5 отсутствует в базе данных
Трек 6 отсутствует в базе данных
Трек 7 отсутствует в базе данных
Трек 8 отсутствует в базе данных
Трек 9 отсутствует в базе данных
Трек 10 отсутствует в базе данных
Трек 11 отсутствует в базе данных
Трек 12 отсутствует в базе данных
Трек 13 отсутствует в базе данных
Трек 14 отсутствует в базе данных
Трек 15 отсутствует в базе данных
Ни одного трека нет в базе AccurateRip
Конец отчёта
==== Контрольная сумма отчёта 06479EF3622957FD1CB2B6C5A183994A4B77CCEC26DA7C26C9059BBCEB4FB8B7 ====

[477.9 MB] Скачать / Download