(Euro-House, Synth-pop, Italo-Disco) Video Kids - Woodpeckers From Space (CDM) - 2001, APE (image+.cue), lossless - Скачать

Жанр: Euro-House, Synth-pop, Italo-Disco
Страна-производитель диска: Germany
Год издания: 2001
Издатель (лейбл): Golden-Dance-Classics
Номер по каталогу: GDC 2103-8
Страна: Holland
Аудиокодек: APE (*.ape)
Тип рипа: image+.cue
Битрейт аудио: lossless
Продолжительность: 28:11
Источник (релизер): Danceforum
Наличие сканов в содержимом раздачи: нет
Треклист:
01. Woodpeckers From Space ( Radio Mix ) 3:51
02. Woodpeckers From Space ( Extended Mix ) 5:22
03. Woodpeckers From Space ( Club Mix Long ) 5:14
04. Woodpeckers From Space ( 12' Inch ) 5:56
05. Woodpeckers From Space ( 7' Inch ) 3:48
06. Woodpeckers From Space ( Video House Kids Version ) 3:56Доп. информация: Какой издатель диска точно не знаю. Скорее всего Golden-Dance-Classics. Прошу модераторов отнестись с пониманием на этот релиз. ёру с Danceforum-а Большое Спасибо.

torrent, торрент, альбом, lossless, высокое качество, soundtrack, трек, поп-музыка, дискография, download, музыка, скачать, pop-music, бесплатно, альбом, песни, mp3, pop, поп, cd, композиции

 Exact Audio Copy V0.99 prebeta 3 from 28. July 2007
EAC Auslese-Logdatei vom 31. Oktober 2007, 14:47
Video Kids / Woodpeckers From Space
Benutztes Laufwerk : SONY DVD RW DW-Q31A Adapter: 0 ID: 0
Lesemodus : Sicher
Benutze Accurate Stream : Ja
Audio Puffer abgeschaltet : Ja
Benutze C2 Fehlerinformationen : Nein
Leseoffset Korrektur : 6
Ьberlesen in das Lead-In und Lead-Out : Nein
Fьlle fehlende Offsetsample mit Stille auf : Ja
Lцsche fьhrende und nachfolgende stille Blцcke : Nein
Null Samples gehen in CRC Berechnungen ein : Ja
Benutzte Schnittstelle : Installierte externe ASPI Schnittstelle
Benutztes Ausgabeformat : Interne WAV Routinen
Sampleformat : 44.100 Hz; 16 Bit; Stereo
TOC der ausgelesenen CD
Track | Start | Lдnge | Startsektor | Endsektor
-------------------------------------------------------
1 | 0:00.00 | 3:51.60 | 0 | 17384
2 | 3:51.60 | 5:22.62 | 17385 | 41596
3 | 9:14.47 | 5:14.58 | 41597 | 65204
4 | 14:29.30 | 5:56.50 | 65205 | 91954
5 | 20:26.05 | 3:48.60 | 91955 | 109114
6 | 24:14.65 | 3:56.15 | 109115 | 126829
Bereichsstatus und Fehler
Gewдhlter Bereich
Dateiname C:\VK\Video Kids - Woodpeckers From Space.wav
Spitzenpegel 92.3 %
Bereichsqualitдt 100.0 %
Kopie CRC 2253011F
Kopie OK
Keine Fehler aufgetreten
AccurateRip Ьbersicht
Track 1 kann nicht als akkurat verifiziert werden (Zuversicht 1) [8EDFCB10], AccurateRip lieferte [A3553C1E]
Track 2 kann nicht als akkurat verifiziert werden (Zuversicht 1) [59E14B84], AccurateRip lieferte [51C26E7A]
Track 3 kann nicht als akkurat verifiziert werden (Zuversicht 1) [448A7009], AccurateRip lieferte [D56ED9EA]
Track 4 kann nicht als akkurat verifiziert werden (Zuversicht 1) [31164F6B], AccurateRip lieferte [B180A038]
Track 5 kann nicht als akkurat verifiziert werden (Zuversicht 1) [42CCA03D], AccurateRip lieferte [5B4F5EA6]
Track 6 kann nicht als akkurat verifiziert werden (Zuversicht 1) [408091F3], AccurateRip lieferte [E59CF58B]
Kein Track konnte als akkurat verifiziert werden
Es kцnnte sich um eine andere Pressung als von der in der Datenbank vorhandenen handeln
Ende des Statusreports

[170.7 MB] Скачать / Download