(Eurobeat/Hi-NRG/Dance) VA - Super Eurobeat Vol. 172 - 2006, FLAC (tracks+.cue), lossless - Скачать

Жанр: Eurobeat/Hi-NRG/Dance
Год выпуска: 2006
Производитель: Japan
Битрейт аудио: lossless
Аудио кодек: FLAC (*.flac)
Тип рипа: tracks+.cue
Источник: what.cd [Lebon14]
Продолжительность: 00:01:13:12
Дополнительная информация: с измененными тэгами и индексной картой (*.cue),
оригинальный лог (*.log) файл от программы EAC изменениям не подвергался.

01. Pamsy - Once Upon a Time [4:06]
02. Fastway - Go Racin' Go! [4:07]
03. Stephy Martini - Mad Desire [4:06]
04. Alexis - One Night in Tokyo [4:05]
05. Vivi - Gimme Gimme Gimme [4:00]
06. Lou Grant - Don't Stop The Music 2006 [4:04]
07. Dave & Meri - I Wanna Give You My Heart [3:59]
08. Jungle Bill - Baby Call Me Frankenstein [4:10]
09. Manuel - Countdown to Destination [4:01]
10. Nando - Dark and Bright [4:02]
11. Paul Harris - Every Night [4:06]
12. Ray Sun - Black Devil [4:10]
13. Queen 26 - Keep On Loving You [4:06]
14. Kasanova - Love Shining [3:58]
15. Barbie - Parapara Girl [3:53]
16. Martina Dry - Get a Boom [4:05]
17. Lisa & Ace - Getting The Fever [4:10]
18. Annalise - Promised Land [4:06]

soundtrack, поп-музыка, скачать, download, mp3, музыка, дискография, pop-music, cd, трек, композиции, высокое качество, поп, торрент, lossless, альбом, альбом, бесплатно, pop, torrent, песни

 Exact Audio Copy V1.0 beta 3 from 29. August 2011
EAC extraction logfile from 22. March 2014, 21:38
Various Artists / Super Eurobeat Vol.172
Used drive : HL-DT-STBD-RE UH10LS20 Adapter: 0 ID: 2
Read mode : Secure
Utilize accurate stream : Yes
Defeat audio cache : Yes
Make use of C2 pointers : No
Read offset correction : 667
Overread into Lead-In and Lead-Out : No
Fill up missing offset samples with silence : Yes
Delete leading and trailing silent blocks : No
Null samples used in CRC calculations : Yes
Used interface : Native Win32 interface for Win NT & 2000
Gap handling : Appended to previous track
Used output format : User Defined Encoder
Selected bitrate : 1024 kBit/s
Quality : High
Add ID3 tag : No
Command line compressor : C:\Program Files (x86)\Exact Audio Copy\Flac\flac.exe
Additional command line options : -5 -V -T "ARTIST=%artist%" -T "TITLE=%title%" -T "ALBUM=%albumtitle%" -T "DATE=%year%" -T "TRACKNUMBER=%tracknr%" -T "GENRE=%genre%" -T "PERFORMER=%albuminterpret%" -T "COMPOSER=%composer%" %haslyrics%--tag-from-file=LYRICS="%lyricsfile%"%haslyrics% -T "ALBUMARTIST=%albumartist%" -T "DISCNUMBER=%cdnumber%" -T "TOTALDISCS=%totalcds%" -T "TOTALTRACKS=%numtracks%" -T "COMMENT=%comment%" %source% -o %dest%
TOC of the extracted CD
Track | Start | Length | Start sector | End sector
---------------------------------------------------------
1 | 0:00.00 | 4:05.47 | 0 | 18421
2 | 4:05.47 | 4:06.43 | 18422 | 36914
3 | 8:12.15 | 4:06.37 | 36915 | 55401
4 | 12:18.52 | 4:05.33 | 55402 | 73809
5 | 16:24.10 | 3:59.60 | 73810 | 91794
6 | 20:23.70 | 4:03.65 | 91795 | 110084
7 | 24:27.60 | 3:58.70 | 110085 | 128004
8 | 28:26.55 | 4:09.45 | 128005 | 146724
9 | 32:36.25 | 4:00.40 | 146725 | 164764
10 | 36:36.65 | 4:02.37 | 164765 | 182951
11 | 40:39.27 | 4:05.50 | 182952 | 201376
12 | 44:45.02 | 4:09.73 | 201377 | 220124
13 | 48:55.00 | 4:06.02 | 220125 | 238576
14 | 53:01.02 | 3:57.48 | 238577 | 256399
15 | 56:58.50 | 3:53.20 | 256400 | 273894
16 | 60:51.70 | 4:05.25 | 273895 | 292294
17 | 64:57.20 | 4:09.40 | 292295 | 311009
18 | 69:06.60 | 4:05.52 | 311010 | 329436
Track 1
Filename G:\Stuff\New rips\Non-Unicode\V.A. - Super Eurobeat Vol.172\01 - Pamsy - Once Upon A Time.wav
Pre-gap length 0:00:02.00
Peak level 100.0 %
Extraction speed 1.2 X
Track quality 100.0 %
Test CRC 5A95222E
Copy CRC 5A95222E
Track not present in AccurateRip database
Copy OK
Track 2
Filename G:\Stuff\New rips\Non-Unicode\V.A. - Super Eurobeat Vol.172\02 - Fastway - Go Racin' Go!.wav
Pre-gap length 0:00:01.73
Peak level 100.0 %
Extraction speed 1.3 X
Track quality 100.0 %
Test CRC 7121AD3A
Copy CRC 7121AD3A
Track not present in AccurateRip database
Copy OK
Track 3
Filename G:\Stuff\New rips\Non-Unicode\V.A. - Super Eurobeat Vol.172\03 - Stephy Martini - Mad Desire.wav
Pre-gap length 0:00:01.70
Peak level 100.0 %
Extraction speed 1.4 X
Track quality 100.0 %
Test CRC B3A62966
Copy CRC B3A62966
Track not present in AccurateRip database
Copy OK
Track 4
Filename G:\Stuff\New rips\Non-Unicode\V.A. - Super Eurobeat Vol.172\04 - Alexis - One Night In Tokyo.wav
Pre-gap length 0:00:01.73
Peak level 100.0 %
Extraction speed 1.5 X
Track quality 100.0 %
Test CRC 8C18EC81
Copy CRC 8C18EC81
Track not present in AccurateRip database
Copy OK
Track 5
Filename G:\Stuff\New rips\Non-Unicode\V.A. - Super Eurobeat Vol.172\05 - Vivi - Gimme Gimme Gimme.wav
Pre-gap length 0:00:01.73
Peak level 100.0 %
Extraction speed 1.6 X
Track quality 100.0 %
Test CRC 1B9E858F
Copy CRC 1B9E858F
Track not present in AccurateRip database
Copy OK
Track 6
Filename G:\Stuff\New rips\Non-Unicode\V.A. - Super Eurobeat Vol.172\06 - Lou Grant - Don't Stop The Music 2006.wav
Pre-gap length 0:00:01.70
Peak level 100.0 %
Extraction speed 1.7 X
Track quality 100.0 %
Test CRC 1E8A10A8
Copy CRC 1E8A10A8
Track not present in AccurateRip database
Copy OK
Track 7
Filename G:\Stuff\New rips\Non-Unicode\V.A. - Super Eurobeat Vol.172\07 - Dave & Meri - I Wanna Give You My Heart.wav
Pre-gap length 0:00:02.70
Peak level 100.0 %
Extraction speed 1.8 X
Track quality 100.0 %
Test CRC 3D132607
Copy CRC 3D132607
Track not present in AccurateRip database
Copy OK
Track 8
Filename G:\Stuff\New rips\Non-Unicode\V.A. - Super Eurobeat Vol.172\08 - Jungle Bill - Baby Call Me Frankenstein.wav
Pre-gap length 0:00:01.70
Peak level 100.0 %
Extraction speed 1.9 X
Track quality 100.0 %
Test CRC 68881666
Copy CRC 68881666
Track not present in AccurateRip database
Copy OK
Track 9
Filename G:\Stuff\New rips\Non-Unicode\V.A. - Super Eurobeat Vol.172\09 - Manuel - Countdown To Destination.wav
Pre-gap length 0:00:01.70
Peak level 100.0 %
Extraction speed 2.0 X
Track quality 100.0 %
Test CRC 00B42BA1
Copy CRC 00B42BA1
Track not present in AccurateRip database
Copy OK
Track 10
Filename G:\Stuff\New rips\Non-Unicode\V.A. - Super Eurobeat Vol.172\10 - Nando - Dark And Bright.wav
Pre-gap length 0:00:02.73
Peak level 100.0 %
Extraction speed 2.0 X
Track quality 100.0 %
Test CRC 5CADDEC3
Copy CRC 5CADDEC3
Track not present in AccurateRip database
Copy OK
Track 11
Filename G:\Stuff\New rips\Non-Unicode\V.A. - Super Eurobeat Vol.172\11 - Paul Harris - Every Night.wav
Pre-gap length 0:00:01.73
Peak level 100.0 %
Extraction speed 1.9 X
Track quality 99.9 %
Test CRC 8F9ACFE8
Copy CRC 8F9ACFE8
Track not present in AccurateRip database
Copy OK
Track 12
Filename G:\Stuff\New rips\Non-Unicode\V.A. - Super Eurobeat Vol.172\12 - Ray Sun - Black Devil.wav
Pre-gap length 0:00:01.73
Peak level 100.0 %
Extraction speed 1.9 X
Track quality 99.9 %
Test CRC B060898C
Copy CRC B060898C
Track not present in AccurateRip database
Copy OK
Track 13
Filename G:\Stuff\New rips\Non-Unicode\V.A. - Super Eurobeat Vol.172\13 - Queen 26 - Keep On Loving You.wav
Pre-gap length 0:00:01.73
Peak level 100.0 %
Extraction speed 2.0 X
Track quality 99.9 %
Test CRC E860BB27
Copy CRC E860BB27
Track not present in AccurateRip database
Copy OK
Track 14
Filename G:\Stuff\New rips\Non-Unicode\V.A. - Super Eurobeat Vol.172\14 - Kasanova - Love Shining.wav
Pre-gap length 0:00:01.73
Peak level 100.0 %
Extraction speed 2.3 X
Track quality 100.0 %
Test CRC 82978484
Copy CRC 82978484
Track not present in AccurateRip database
Copy OK
Track 15
Filename G:\Stuff\New rips\Non-Unicode\V.A. - Super Eurobeat Vol.172\15 - Barbie - Parapara Girl.wav
Pre-gap length 0:00:02.90
Peak level 100.0 %
Extraction speed 2.4 X
Track quality 100.0 %
Test CRC C4800C9E
Copy CRC C4800C9E
Track not present in AccurateRip database
Copy OK
Track 16
Filename G:\Stuff\New rips\Non-Unicode\V.A. - Super Eurobeat Vol.172\16 - Martina Dry - Get A Boom.wav
Pre-gap length 0:00:01.73
Peak level 100.0 %
Extraction speed 2.2 X
Track quality 99.9 %
Test CRC F49D5E06
Copy CRC F49D5E06
Track not present in AccurateRip database
Copy OK
Track 17
Filename G:\Stuff\New rips\Non-Unicode\V.A. - Super Eurobeat Vol.172\17 - Lisa & Ace - Getting The Fever.wav
Pre-gap length 0:00:01.84
Peak level 100.0 %
Extraction speed 2.5 X
Track quality 100.0 %
Test CRC B7B51C39
Copy CRC B7B51C39
Track not present in AccurateRip database
Copy OK
Track 18
Filename G:\Stuff\New rips\Non-Unicode\V.A. - Super Eurobeat Vol.172\18 - Annalise - Promised Land.wav
Pre-gap length 0:00:01.70
Peak level 100.0 %
Extraction speed 2.3 X
Track quality 99.9 %
Test CRC E82BCABE
Copy CRC E82BCABE
Track not present in AccurateRip database
Copy OK
None of the tracks are present in the AccurateRip database
No errors occurred
End of status report
==== Log checksum E939A2CD3E8A3AE2647DF6A34C8B549BA45DB5384A58F71EB810B9F69E47F9D1 ====
 REM GENRE Eurobeat
REM DATE 2006
REM DISCID 2A112812
REM COMMENT "ExactAudioCopy v1.0b3"
CATALOG 4988064101726
PERFORMER "Various Artists"
TITLE "Super Eurobeat Vol. 172"
FILE "01. Pamsy - Once Upon a Time.wav" WAVE
TRACK 01 AUDIO
TITLE "Once Upon a Time"
PERFORMER "Pamsy"
ISRC JPB600656201
INDEX 01 00:00:00
TRACK 02 AUDIO
TITLE "Go Racin' Go!"
PERFORMER "Fastway"
ISRC JPB600656202
INDEX 00 04:03:67
FILE "02. Fastway - Go Racin' Go!.wav" WAVE
INDEX 01 00:00:00
TRACK 03 AUDIO
TITLE "Mad Desire"
PERFORMER "Stephy Martini"
INDEX 00 04:04:65
FILE "03. Stephy Martini - Mad Desire.wav" WAVE
INDEX 01 00:00:00
TRACK 04 AUDIO
TITLE "One Night in Tokyo"
PERFORMER "Alexis"
ISRC JPB600656203
INDEX 00 04:04:57
FILE "04. Alexis - One Night in Tokyo.wav" WAVE
INDEX 01 00:00:00
TRACK 05 AUDIO
TITLE "Gimme Gimme Gimme"
PERFORMER "Vivi"
ISRC JPB600656204
INDEX 00 04:03:53
FILE "05. Vivi - Gimme Gimme Gimme.wav" WAVE
INDEX 01 00:00:00
TRACK 06 AUDIO
TITLE "Don't Stop The Music 2006"
PERFORMER "Lou Grant"
ISRC JPB600656205
INDEX 00 03:58:07
FILE "06. Lou Grant - Don't Stop The Music 2006.wav" WAVE
INDEX 01 00:00:00
TRACK 07 AUDIO
TITLE "I Wanna Give You My Heart"
PERFORMER "Dave & Meri"
INDEX 00 04:01:12
FILE "07. Dave & Meri - I Wanna Give You My Heart.wav" WAVE
INDEX 01 00:00:00
TRACK 08 AUDIO
TITLE "Baby Call Me Frankenstein"
PERFORMER "Jungle Bill"
INDEX 00 03:57:17
FILE "08. Jungle Bill - Baby Call Me Frankenstein.wav" WAVE
INDEX 01 00:00:00
TRACK 09 AUDIO
TITLE "Countdown to Destination"
PERFORMER "Manuel"
INDEX 00 04:07:67
FILE "09. Manuel - Countdown to Destination.wav" WAVE
INDEX 01 00:00:00
TRACK 10 AUDIO
TITLE "Dark and Bright"
PERFORMER "Nando"
INDEX 00 03:57:60
FILE "10. Nando - Dark and Bright.wav" WAVE
INDEX 01 00:00:00
TRACK 11 AUDIO
TITLE "Every Night"
PERFORMER "Paul Harris"
INDEX 00 04:00:57
FILE "11. Paul Harris - Every Night.wav" WAVE
INDEX 01 00:00:00
TRACK 12 AUDIO
TITLE "Black Devil"
PERFORMER "Ray Sun"
INDEX 00 04:03:70
FILE "12. Ray Sun - Black Devil.wav" WAVE
INDEX 01 00:00:00
TRACK 13 AUDIO
TITLE "Keep On Loving You"
PERFORMER "Queen 26"
INDEX 00 04:08:18
FILE "13. Queen 26 - Keep On Loving You.wav" WAVE
INDEX 01 00:00:00
TRACK 14 AUDIO
TITLE "Love Shining"
PERFORMER "Kasanova"
ISRC JPB600656206
INDEX 00 04:04:22
FILE "14. Kasanova - Love Shining.wav" WAVE
INDEX 01 00:00:00
TRACK 15 AUDIO
TITLE "Parapara Girl"
PERFORMER "Barbie"
ISRC JPB600656207
INDEX 00 03:54:55
FILE "15. Barbie - Parapara Girl.wav" WAVE
INDEX 01 00:00:00
TRACK 16 AUDIO
TITLE "Get a Boom"
PERFORMER "Martina Dry"
INDEX 00 03:51:40
FILE "16. Martina Dry - Get a Boom.wav" WAVE
INDEX 01 00:00:00
TRACK 17 AUDIO
TITLE "Getting The Fever"
PERFORMER "Lisa & Ace"
ISRC JPB600656208
INDEX 00 04:03:37
FILE "17. Lisa & Ace - Getting The Fever.wav" WAVE
INDEX 01 00:00:00
TRACK 18 AUDIO
TITLE "Promised Land"
PERFORMER "Annalise"
INDEX 00 04:07:62
FILE "18. Annalise - Promised Land.wav" WAVE
INDEX 01 00:00:00
 -----------------------
DON'T MODIFY THIS FILE
-----------------------
PERFORMER: auCDtect Task Manager, ver. 1.6.0 RC1 build 1.6.0.1
Copyright (c) 2008-2010 y-soft. All rights reserved
http://y-soft.org
ANALYZER: auCDtect: CD records authenticity detector, version 0.8.2
Copyright (c) 2004 Oleg Berngardt. All rights reserved.
Copyright (c) 2004 Alexander Djourik. All rights reserved.
FILE: 01. Pamsy - Once Upon a Time.flac
Size: 35894521 Hash: F596AA05C70C536D2628BA64F52FDAF1 Accuracy: -m0
Conclusion: CDDA 100%
Signature: B3B9A5F1D0C6F6BF217BA4F9DDB278159B1BDF55
FILE: 02. Fastway - Go Racin' Go!.flac
Size: 36372312 Hash: D62120352368E91EC9D448CC483663AF Accuracy: -m0
Conclusion: CDDA 100%
Signature: 3D097989F94C794CED14FF80B9D4E5CCC0502689
FILE: 03. Stephy Martini - Mad Desire.flac
Size: 35299831 Hash: B00033490CD34154BB2E0297E5DCEFC9 Accuracy: -m0
Conclusion: CDDA 100%
Signature: FCD23CB6A1179232281F44536BFD6C7BB2B73B3F
FILE: 04. Alexis - One Night in Tokyo.flac
Size: 35981237 Hash: 4876CE0ABEA08357B38B0B52F16E9610 Accuracy: -m0
Conclusion: CDDA 99%
Signature: F38D133AB2A82A4EE62D574B8F9536AC5BBD1E56
FILE: 05. Vivi - Gimme Gimme Gimme.flac
Size: 34307304 Hash: 7140377F3378553E30F863B428029CBF Accuracy: -m0
Conclusion: CDDA 100%
Signature: BD0630508A74130064E64FC3C254816A3484368A
FILE: 06. Lou Grant - Don't Stop The Music 2006.flac
Size: 34139057 Hash: 0FEA62EA434B7226E5601818FD957D5C Accuracy: -m0
Conclusion: CDDA 100%
Signature: 94510554846460DEBB6442844FF166F4A2DF9559
FILE: 07. Dave & Meri - I Wanna Give You My Heart.flac
Size: 32605001 Hash: 37C272F0BFFBF240ECFFE54846119DE8 Accuracy: -m0
Conclusion: CDDA 99%
Signature: 0D2786A28E89384F83C827A0AEE9C97D2A78282F
FILE: 08. Jungle Bill - Baby Call Me Frankenstein.flac
Size: 34814256 Hash: 8322D3C1E2D8F9E4B222835E93AE7105 Accuracy: -m0
Conclusion: CDDA 100%
Signature: 7628C095BA58D312A1355E20D79BB16B8417E1A2
FILE: 09. Manuel - Countdown to Destination.flac
Size: 34332682 Hash: C6467CEEBB2788DF4CE75977F3FF970C Accuracy: -m0
Conclusion: CDDA 99%
Signature: E845754884D83FC8DC8CC855814217F2FDBED626
FILE: 10. Nando - Dark and Bright.flac
Size: 33633767 Hash: 26FA6A26159244F6A749968453965013 Accuracy: -m0
Conclusion: CDDA 100%
Signature: BADABC7A9EDC13FF9411D16FB60C4877D8A3075F
FILE: 11. Paul Harris - Every Night.flac
Size: 35533749 Hash: 3074517B9BC25D68D25F4F1B76EFFC7D Accuracy: -m0
Conclusion: CDDA 100%
Signature: C4E247760FE3754C7206C79DAE488107BCF1F3D2
FILE: 12. Ray Sun - Black Devil.flac
Size: 35483495 Hash: 8B58DBEE1F1B34C517C667C4C000E9FF Accuracy: -m0
Conclusion: CDDA 100%
Signature: D160CB028F34C07B04AB8E3E50AAC4F0D6BEB307
FILE: 13. Queen 26 - Keep On Loving You.flac
Size: 34623656 Hash: 76137310122D6A017886AD708F19F553 Accuracy: -m0
Conclusion: CDDA 99%
Signature: AFFB2734D7B6F277EC7A3F2D20077984868B483B
FILE: 14. Kasanova - Love Shining.flac
Size: 34196810 Hash: AE3074925E5490E927FEE88E4E7010C3 Accuracy: -m0
Conclusion: CDDA 100%
Signature: 4848EA846C02C601147E115E6A30EBBA385E14A2
FILE: 15. Barbie - Parapara Girl.flac
Size: 32691170 Hash: E31902EDC13F67B01A39E0D8AECE0352 Accuracy: -m0
Conclusion: CDDA 99%
Signature: 7B35106C4A6250A83D430D173E0EB4FA6AFCB72B
FILE: 16. Martina Dry - Get a Boom.flac
Size: 34173266 Hash: 4A5D8DC5B3D6D9AA94C34952EF300712 Accuracy: -m0
Conclusion: CDDA 100%
Signature: B6FED8ADAA6A7ACBFF25D21A83E52AA66ADF67A3
FILE: 17. Lisa & Ace - Getting The Fever.flac
Size: 34311716 Hash: A4FD504ABC587A8AD4D3E1DA2C6C557D Accuracy: -m0
Conclusion: CDDA 100%
Signature: 3289AB200E4A76FB07145293484A2AA8FC10B47D
FILE: 18. Annalise - Promised Land.flac
Size: 33780271 Hash: 5D0BC31E7712B0B732A624C70B80F576 Accuracy: -m0
Conclusion: CDDA 100%
Signature: 4CA49A097F048AA5E777C6279BF40FBDE6C1E3F4
 [CUETools log; Date: 22.04.2014 22:50:06; Version: 2.1.4]
[CTDB TOCID: _xoMCQcwuL95Fn4j.Ns9ei3nAzc-] disk not present in database.
[AccurateRip ID: 002fca58-027cdc81-2a112812] found.
Track [ CRC | V2 ] Status
01 [5b04c570|ea10130e] (0+1/1) Accurately ripped
02 [1718b6f5|4ad1041b] (0+1/1) Accurately ripped
03 [fc591311|bb29e27e] (0+1/1) Accurately ripped
04 [0e03816e|2d834aef] (0+1/1) Accurately ripped
05 [101ea662|d1cac330] (0+1/1) Accurately ripped
06 [2e5dee15|00d64e35] (0+1/1) Accurately ripped
07 [1af097db|20354f99] (0+1/1) Accurately ripped
08 [25f49b1f|0f6e4795] (0+1/1) Accurately ripped
09 [53126da0|994ce830] (0+1/1) Accurately ripped
10 [bad97acb|773166a5] (0+1/1) Accurately ripped
11 [6a759084|f4cb9e2f] (0+1/1) Accurately ripped
12 [ef5e550c|946b8d45] (0+1/1) Accurately ripped
13 [ee6c0f7e|1c2c760f] (0+1/1) Accurately ripped
14 [d5809e93|4924fa53] (0+1/1) Accurately ripped
15 [f65c8b5f|9de0a09f] (0+1/1) Accurately ripped
16 [d744cc5d|11f91cee] (0+1/1) Accurately ripped
17 [aa5de0c1|af2e715e] (0+1/1) Accurately ripped
18 [5e49a927|209a06e8] (0+1/1) Accurately ripped
Track Peak [ CRC32 ] [W/O NULL] [ LOG ]
-- 99,9 [0D5F0900] [CA82B4DA]
01 99,9 [5A95222E] [1D9B4839] CRC32
02 99,9 [7121AD3A] [A53C3949] CRC32
03 99,9 [B3A62966] [0679952A] CRC32
04 99,9 [8C18EC81] [4B6B5962] CRC32
05 99,9 [1B9E858F] [0B8D30F9] CRC32
06 99,9 [1E8A10A8] [946CFCB6] CRC32
07 99,9 [3D132607] [0D758725] CRC32
08 99,9 [68881666] [CC2EB158] CRC32
09 99,9 [00B42BA1] [C8FBCC53] CRC32
10 99,9 [5CADDEC3] [5061DE47] CRC32
11 99,9 [8F9ACFE8] [38708E04] CRC32
12 99,9 [B060898C] [6BE6E394] CRC32
13 99,9 [E860BB27] [91A9FABD] CRC32
14 99,9 [82978484] [E896AD57] CRC32
15 99,9 [C4800C9E] [35D9C574] CRC32
16 99,9 [F49D5E06] [D70AEBFD] CRC32
17 99,9 [B7B51C39] [BA363F55] CRC32
18 99,9 [E82BCABE] [4074E5BB] CRC32

[606.8 MB] Скачать / Download